Вас Приветствует Релиз-группа HQCLUB


Помощь ресурсу, очень ВАЖНО!!!



.


WELCOME
Добро пожаловать в наше интернет - сообщество!

Всех нас объединяет одна страсть - страсть к высококачественному кино. А это наш сайт. Ежедневно здесь мы публикуем десятки качественных, свежих, а порой и эксклюзивных релизов, которые Вы можете скачать совершенно бесплатно и без каких-либо регистраций. Посему рекомендуем Вам добавить HQClub себе в закладки, а также подписаться на нашу ленту новостей, чтобы всегда быть в курсе всех событий. Ну а если Вы такой же синий фил, как и мы, то милости просим на наш форум. И в заключение, попробуйте зарегистрироваться, ведь не так это и сложно и займет всего лишь пару минут! Вот увидите, Вам у нас понравится и Вы вольетесь в наш дружный коллектив! Ну а пока - осматривайтесь = )
Мы рады Вам !





Планета Халка / Planet Hulk (2010) 720p BDRip

Оформил: DaniLch | 10 октября 2011 - 20:30:16 | Обращений: 2657 {bookmarks_news}

http//lostpic.net/images/dd08b8f8a1bf475c112bffb6a50053.png

Название: Планета Халка
Оригинальное название: Planet Hulk
Год выхода: 2010
Жанр: мультфильм, фантастика, боевик
Режиссер: Сэм Лью / Sam Liu
Роли озвучивали: Рик Д. Вассерман, Лиза Энн Бели, Марк Хилдрет, Лайам О’Брайэн, Кевин Майкл Ричардсон, Сэм Винсент, Advah Soudack, Майкл Копса, Пол Добсон, Марк Уорден

О фильме: Сохранит ли он свой мир или разрушить его? Когда Халк становится слишком опасным для Земли, его сажают в челноки и запускают в космос. К сожалению, сбой в челноке приводит к тому, что Халк приземляется на планету Sakaar, где он был продан в рабство в качестве гладиатора.

http//www.kinopoisk.ru/rating/5325.gif

Релиз от - http//hqclub.net/images/hqclub.png
Автор рипа: DaniLch

Выпущено: http//lostpic.net/images/ac5cb4a618da65239cf7be53b9ab78.gif США | Lionsgate, Marvel Animation
Продолжительность: 01:21:07

Контейнер: MKV
Видео: 1280x720 (1.78:1), 23.976 fps, x264@L4.1, crf, ~3137 kbps
Аудио #1: Russian: 48 kHz, AC3 Dolby Digital, 3/2 (L,C,R,l,r) + LFE ch, ~384 kbps |Многоголосый закадровый, DVD R5|
Аудио #2: English: 48 kHz/24-bit, DTS, 3/2 (L,C,R,l,r) + LFE ch, ~1536 kbps
Субтитры: английские
Размер: 2.90 Gb

http//lostpic.net/thumbs/d60cb46e3686b286c95f97021850b408.png http//lostpic.net/thumbs/7cdacc11ce2c278f20bdbc53c3a6a2a8.png http//lostpic.net/thumbs/b40596b011767ea123274b45866f8a52.png http//lostpic.net/thumbs/a2b2ba589011639bc899f5f868258f45.png

http//bt.hqclub.net/files/ok.png Торрент: Планета Халка / Planet Hulk (2010) 720p BDRip

MediaInfo
General
Complete name : Planet.Hulk.2010.BDRip.720p.H264.DTS.AC3.-HQCLUB.mkv
Format : Matroska
File size : 2.91 GiB
Duration : 1h 21mn
Overall bit rate : 5 133 Kbps
Movie name : 720p BDRip by DaniLch
Encoded date : UTC 2011-09-26 04:24:42
Writing application : mkvmerge v4.9.1 ('Ich will') built on Jul 11 2011 23:53:15
Writing library : libebml v1.2.1 + libmatroska v1.1.1

Video
ID : 1
Format : AVC
Format/Info : Advanced Video Codec
Format profile : High@L4.1
Format settings, CABAC : Yes
Format settings, ReFrames : 7 frames
Codec ID : V_MPEG4/ISO/AVC
Duration : 1h 21mn
Bit rate : 3 137 Kbps
Width : 1 280 pixels
Height : 720 pixels
Display aspect ratio : 16:9
Frame rate : 23.976 fps
Color space : YUV
Chroma subsampling : 4:2:0
Bit depth : 8 bits
Scan type : Progressive
Bits/(Pixel*Frame) : 0.142
Stream size : 1.78 GiB (61%)
Title : Planet Hulk (2010) 720p BDRip
Writing library : x264 core 116 r2074 2641b9e
Encoding settings : cabac=1 / ref=7 / deblock=1:-2:-1 / analyse=0x3:0x113 / me=umh / subme=10 / psy=1 / psy_rd=0.80:0.10 / mixed_ref=1 / me_range=24 / chroma_me=1 / trellis=2 / 8x8dct=1 / cqm=0 / deadzone=21,11 / fast_pskip=0 / chroma_qp_offset=0 / threads=6 / sliced_threads=0 / nr=0 / decimate=1 / interlaced=0 / bluray_compat=0 / constrained_intra=0 / bframes=6 / b_pyramid=2 / b_adapt=2 / b_bias=0 / direct=3 / weightb=1 / open_gop=0 / weightp=2 / keyint=250 / keyint_min=23 / scenecut=40 / intra_refresh=0 / rc_lookahead=40 / rc=crf / mbtree=0 / crf=16.1 / qcomp=0.60 / qpmin=10 / qpmax=51 / qpstep=4 / vbv_maxrate=50000 / vbv_bufsize=62500 / crf_max=0.0 / nal_hrd=none / ip_ratio=1.40 / pb_ratio=1.30 / aq=2:0.80
Language : English

Audio #1
ID : 2
Format : AC-3
Format/Info : Audio Coding 3
Mode extension : CM (complete main)
Codec ID : A_AC3
Duration : 1h 21mn
Bit rate mode : Constant
Bit rate : 384 Kbps
Channel(s) : 6 channels
Channel positions : Front: L C R, Side: L R, LFE
Sampling rate : 48.0 KHz
Bit depth : 16 bits
Compression mode : Lossy
Stream size : 223 MiB (7%)
Title : AC3 5.1 @ 384 kbps - Многоголосый закадровый, R5
Language : Russian

Audio #2
ID : 3
Format : DTS
Format/Info : Digital Theater Systems
Codec ID : A_DTS
Duration : 1h 21mn
Bit rate mode : Constant
Bit rate : 1 510 Kbps
Channel(s) : 6 channels
Channel positions : Front: L C R, Side: L R, LFE
Sampling rate : 48.0 KHz
Bit depth : 24 bits
Compression mode : Lossy
Stream size : 876 MiB (29%)
Title : DTS 5.1 @ 1536 kbps
Language : English

Text
ID : 4
Format : UTF-8
Codec ID : S_TEXT/UTF8
Codec ID/Info : UTF-8 Plain Text
Language : English


Лучшая онлайн игра!


Публикация материалов сайта на сторонних ресурсах возможна только в неизменном виде.


Обсудить релиз на форуме

Вас также может заинтересовать:


  • 2
 (Голосов: 6)


Распечатать новость на принтере Мультфильм, Анимационный, Фантастика, Боевик