Вас Приветствует Релиз-группа HQCLUB


Помощь ресурсу, очень ВАЖНО!!!



.


WELCOME
Добро пожаловать в наше интернет - сообщество!

Всех нас объединяет одна страсть - страсть к высококачественному кино. А это наш сайт. Ежедневно здесь мы публикуем десятки качественных, свежих, а порой и эксклюзивных релизов, которые Вы можете скачать совершенно бесплатно и без каких-либо регистраций. Посему рекомендуем Вам добавить HQClub себе в закладки, а также подписаться на нашу ленту новостей, чтобы всегда быть в курсе всех событий. Ну а если Вы такой же синий фил, как и мы, то милости просим на наш форум. И в заключение, попробуйте зарегистрироваться, ведь не так это и сложно и займет всего лишь пару минут! Вот увидите, Вам у нас понравится и Вы вольетесь в наш дружный коллектив! Ну а пока - осматривайтесь = )
Мы рады Вам !





Рио 2 / Rio 2 (2014) BDRip-AVC

Оформил: Elheym | 9 июля 2014 - 16:47:40 | Комментариев: 1 | Обращений: 1101 {bookmarks_news}

http//lostpic.net/orig_images/b/1/2/b12cad0f86c2eaba0dcccefb22f02a1e.jpg

Информация о фильме:
Название: Рио 2
Оригинальное название: Rio 2
Год выхода: 2014
Жанр: мультфильм, комедия, приключения, семейный
Режиссер: Карлос Салдана
Роли озвучивали: Энн Хэтэуэй, Джесси Айзенберг, Джейк Т. Остин, Карлиньюс Браун, Кристин Ченоуэт, Джемейн Клемент, Джим Конрой, Рэйчел Кроу, Бернардо де Паула, Нола Донкин

О мультфильме: Голубчик, Жемчужинка и их трое детей живут счастливой жизнью в волшебном городе Рио-де-Жанейро. Когда Жемчужинка решает, что их детям нужно научиться жить как настоящим птицам, она настаивает на авантюрной поездке в дебри реки Амазонки. Там, пытаясь вписаться в новое окружение, Голубчик начинает беспокоиться, что может потерять Жемчужинку и детей, идущих на зов дикой природы.

«It's on in the Amazon»



http//rating.kinopoisk.ru/677437.gif http//tracker.0day.kiev.ua/imdb/imdb_tt23291.gif

Релиз от - http//hqclub.net/images/hqclub.png
Автор рипа: Elheym

Выпущено: США, 20th Century Fox Animation, Blue Sky Studios
Продолжительность: 01:41:11
Перевод: профессиональный (полное дублирование) + дубляж (украинский) + оригинал (английский)
Субтитры: русские (полные), украинские (полные), английские (полные)
Главы: присутствуют, сохранены оригинальные

Файл:
Формат: MKV
Качество: BDRip-AVC (источник: http//i28.fastpic.ru/big/2011/1013/a8/a3d28e80c9544f4c572189fc892ea8.gif / Blu-ray Disc / 1080p)
Видео: 1024x426 (2.40:1), 23.976 fps, MPEG-4 AVC, ~2800 kbps avg, 0.268 bit/pixel
Аудио #1: 48 kHz, AC3 Dolby Digital, 3/2 (L,C,R,l,r) + LFE ch, ~448 kbps (DUB)
Аудио #2: 48 kHz, AC3 Dolby Digital, 3/2 (L,C,R,l,r) + LFE ch, ~448 kbps (UKR.DUB)
Аудио #3: 48 kHz, AC3 Dolby Digital, 3/2 (L,C,R,l,r) + LFE ch, ~448 kbps (ENG)
Размер: 2.92 GB
Сэмпл: скачать

http//lostpic.net/thumbs_images/5/1/7/51772cc72ae11c8631b9169dae2e7efd.png http//lostpic.net/thumbs_images/0/6/4/06423196b77d401f136a0183f02fd2.png http//lostpic.net/thumbs_images/6/2/4/623e0f67cb803904d7fe882884767d.png http//lostpic.net/thumbs_images/8/c/7/8c7cb7b1f8d880195f05d8d006cb65.png http//lostpic.net/thumbs_images/8/e/2/8e235d5562de3f79f7ec0cc1219fdf45.png http//lostpic.net/thumbs_images/d/6/9/d6934e9b079461d59b298fba1e4e42.png

"MediaInfo"

Уникальный идентификатор : 180591411622638383708945910299775219689 (0x87DCA4072A15FAD1B69616E89F6C37E9)
Полное имя : Rio.2.2014.TRIPLE.BDRip-AVC.x264.AC3.-HQCLUB.mkv
Формат : Matroska
Версия формата : Version 2
Размер файла : 2,93 Гбайт
Продолжительность : 1 ч. 41 м.
Общий поток : 4146 Кбит/сек
Дата кодирования : UTC 2014-07-09 07:19:21
Программа кодирования : mkvmerge v5.2.0 ('I can't explain') built on Dec 18 2011 18:12:03
Библиотека кодирования : libebml v1.2.3 + libmatroska v1.3.0

Видео
Идентификатор : 1
Формат : AVC
Формат/Информация : Advanced Video Codec
Профиль формата : High@L4.1
Параметр CABAC формата : Да
Параметр ReFrames формата : 12 кадров
Идентификатор кодека : V_MPEG4/ISO/AVC
Продолжительность : 1 ч. 41 м.
Битрейт : 2800 Кбит/сек
Ширина : 1024 пикселя
Высота : 426 пикселей
Соотношение сторон : 2,40:1
Режим частоты кадров : Постоянный
Частота кадров : 23,976 кадра/сек
Цветовое пространство : YUV
Субдискретизация насыщенности : 4:2:0
Битовая глубина : 8 бит
Тип развёртки : Прогрессивная
Бит/(Пиксели*Кадры) : 0.268
Размер потока : 1,92 Гбайт (66%)
Заголовок : Рио 2 / Rio 2 (2014) BDRip-AVC by HQCLUB [Elheym]
Библиотека кодирования : x264 core 142 r2431 ac76440
Настройки программы : cabac=1 / ref=12 / deblock=1:-3:-2 / analyse=0x3:0x113 / me=umh / subme=11 / psy=1 / psy_rd=1.08:0.00 / mixed_ref=1 / me_range=32 / chroma_me=1 / trellis=2 / 8x8dct=1 / cqm=0 / deadzone=21,11 / fast_pskip=1 / chroma_qp_offset=-4 / threads=6 / lookahead_threads=1 / sliced_threads=0 / nr=0 / decimate=1 / interlaced=0 / bluray_compat=0 / constrained_intra=0 / bframes=10 / b_pyramid=2 / b_adapt=2 / b_bias=0 / direct=3 / weightb=1 / open_gop=0 / weightp=2 / keyint=240 / keyint_min=23 / scenecut=40 / intra_refresh=0 / rc_lookahead=40 / rc=2pass / mbtree=1 / bitrate=2800 / ratetol=1.0 / qcomp=0.60 / qpmin=10 / qpmax=69 / qpstep=4 / cplxblur=20.0 / qblur=0.5 / vbv_maxrate=50000 / vbv_bufsize=62500 / nal_hrd=none / filler=0 / ip_ratio=1.40 / aq=1:0.90
Язык : English
Default : Да
Forced : Нет

Аудио #1
Идентификатор : 2
Формат : AC-3
Формат/Информация : Audio Coding 3
Расширение режима : CM (complete main)
Параметр Endianness формата : Big
Идентификатор кодека : A_AC3
Продолжительность : 1 ч. 41 м.
Вид битрейта : Постоянный
Битрейт : 448 Кбит/сек
Каналы : 6 каналов
Расположение каналов : Front: L C R, Side: L R, LFE
Частота : 48,0 КГц
Битовая глубина : 16 бит
Метод сжатия : С потерями
Размер потока : 324 Мбайт (11%)
Заголовок : АС3 5.1 @ 448 kbps - Dub
Язык : Russian
Default : Нет
Forced : Нет

Аудио #2
Идентификатор : 3
Формат : AC-3
Формат/Информация : Audio Coding 3
Расширение режима : CM (complete main)
Параметр Endianness формата : Big
Идентификатор кодека : A_AC3
Продолжительность : 1 ч. 41 м.
Вид битрейта : Постоянный
Битрейт : 448 Кбит/сек
Каналы : 6 каналов
Расположение каналов : Front: L C R, Side: L R, LFE
Частота : 48,0 КГц
Битовая глубина : 16 бит
Метод сжатия : С потерями
Размер потока : 324 Мбайт (11%)
Заголовок : АС3 5.1 @ 448 kbps - Dub
Язык : Ukrainian
Default : Нет
Forced : Нет

Аудио #3
Идентификатор : 4
Формат : AC-3
Формат/Информация : Audio Coding 3
Расширение режима : CM (complete main)
Параметр Endianness формата : Big
Идентификатор кодека : A_AC3
Продолжительность : 1 ч. 41 м.
Вид битрейта : Постоянный
Битрейт : 448 Кбит/сек
Каналы : 6 каналов
Расположение каналов : Front: L C R, Side: L R, LFE
Частота : 48,0 КГц
Битовая глубина : 16 бит
Метод сжатия : С потерями
Размер потока : 324 Мбайт (11%)
Заголовок : АС3 5.1 @ 448 kbps - Original
Язык : English
Default : Нет
Forced : Нет

Текст #1
Идентификатор : 5
Формат : UTF-8
Идентификатор кодека : S_TEXT/UTF8
Идентификатор кодека/Информация : UTF-8 Plain Text
Заголовок : Full
Язык : Russian
Default : Нет
Forced : Нет

Текст #2
Идентификатор : 6
Формат : UTF-8
Идентификатор кодека : S_TEXT/UTF8
Идентификатор кодека/Информация : UTF-8 Plain Text
Заголовок : Full
Язык : Ukrainian
Default : Нет
Forced : Нет

Текст #3
Идентификатор : 7
Формат : UTF-8
Идентификатор кодека : S_TEXT/UTF8
Идентификатор кодека/Информация : UTF-8 Plain Text
Заголовок : Full
Язык : English
Default : Нет
Forced : Нет

Меню
00:00:00.000 : :Chapter 01
00:03:10.815 : :Chapter 03
00:05:14.313 : :Chapter 05
00:08:49.362 : :Chapter 07
00:13:02.239 : :Chapter 09
00:17:36.305 : :Chapter 11
00:19:19.408 : :Chapter 13
00:22:30.348 : :Chapter 15
00:26:48.690 : :Chapter 17
00:29:00.155 : :Chapter 19
00:30:59.691 : :Chapter 21
00:33:46.566 : :Chapter 23
00:36:34.191 : :Chapter 25
00:39:20.232 : :Chapter 27
00:41:32.656 : :Chapter 29
00:45:05.119 : :Chapter 31
00:47:23.090 : :Chapter 33
00:49:58.161 : :Chapter 35
00:52:05.455 : :Chapter 37
00:55:38.918 : :Chapter 39
00:58:10.904 : :Chapter 41
01:02:11.394 : :Chapter 43
01:04:38.082 : :Chapter 45
01:07:03.936 : :Chapter 47
01:09:18.195 : :Chapter 49
01:10:21.342 : :Chapter 51
01:15:17.763 : :Chapter 53
01:17:00.157 : :Chapter 55
01:21:41.855 : :Chapter 57
01:25:24.619 : :Chapter 59
01:29:42.710 : :Chapter 61
01:32:27.959 : :Chapter 63
01:41:10.981 : :Chapter 64

"x264 log"

x264 [info]: frame I:1334 Avg QP:14.29 size:110734
x264 [info]: frame P:40537 Avg QP:17.37 size: 28070
x264 [info]: frame B:103699 Avg QP:22.20 size: 8092

x264 [info]: consecutive B-frames: 4.1% 5.0% 22.8% 36.4% 13.5% 13.1% 1.9% 0.9% 0.4% 0.7% 1.2%

x264 [info]: ref P L0: 53.5% 13.1% 12.5% 5.6% 3.6% 3.1% 2.2% 1.6% 1.2% 1.2% 1.0% 1.1% 0.3% 0.0%
x264 [info]: ref B L0: 80.7% 8.0% 4.2% 1.8% 1.5% 1.0% 1.2% 0.6% 0.5% 0.3% 0.2%
x264 [info]: ref B L1: 93.1% 6.9%


Ссылки для скачивания:

http//bt.hqclub.net/files/ok.png Торрент: Рио 2 / Rio 2 (2014) BDRip-AVC

Лучшая онлайн игра!


Публикация материалов сайта на сторонних ресурсах возможна только в неизменном виде.


Обсудить релиз на форуме

Вас также может заинтересовать:


  • 5
 (Голосов: 3)


Распечатать новость на принтере Мультфильм, Комедия, Приключения, Семейный
Обновлено: 10.07.2014 - 23:30

КОММЕНТАРИИ

 №1. ru4lan

Статус: Кинокритик | Новостей: 0 | Комментариев: 2736
ru4lan супер размер и качество
~~~

9.07.2014 - 20:18   цитировать