Вас Приветствует Релиз-группа HQCLUB


Помощь ресурсу, очень ВАЖНО!!!



.


WELCOME
Добро пожаловать в наше интернет - сообщество!

Всех нас объединяет одна страсть - страсть к высококачественному кино. А это наш сайт. Ежедневно здесь мы публикуем десятки качественных, свежих, а порой и эксклюзивных релизов, которые Вы можете скачать совершенно бесплатно и без каких-либо регистраций. Посему рекомендуем Вам добавить HQClub себе в закладки, а также подписаться на нашу ленту новостей, чтобы всегда быть в курсе всех событий. Ну а если Вы такой же синий фил, как и мы, то милости просим на наш форум. И в заключение, попробуйте зарегистрироваться, ведь не так это и сложно и займет всего лишь пару минут! Вот увидите, Вам у нас понравится и Вы вольетесь в наш дружный коллектив! Ну а пока - осматривайтесь = )
Мы рады Вам !





Кот Гром и заколдованный дом / The House of Magic / Le Manoir Magique (2013) BDRip-AVC

Оформил: Elheym | 27 июня 2014 - 00:02:34 | Обращений: 1144 {bookmarks_news}

http//lostpic.net/orig_images/7/6/3/7636f0e889a18ae032bad024219b63cd.png

Информация о фильме:
Название: Кот Гром и заколдованный дом
Оригинальное название: The House of Magic / Le Manoir Magique
Год выхода: 2013
Жанр: мультфильм, семейный
Режиссеры: Джереми Дегрусон, Бен Стассен
Роли озвучивали: Синда Адамс, Эдвард Эснер, Эмили Блант, Юджин Леви, Джои Камен, Грант Джордж, Юэн МакГрегор, Рон Перлман, Уильям Шетнер, Кифер Сазерленд
Роли дублировали: Александр Якин, Людмила Артемьева, Михаил Башкатов, Роман Юнусов, Федор Добронравов

О фильме: Любопытный рыжий кот попадает в дом старого фокусника и узнает секрет его трюков. Так начинается его знакомство с учеными зверями и живыми игрушками, а также невероятные приключения полные юмора и опасностей.

http//rating.kinopoisk.ru/751952.gif http//tracker.0day.kiev.ua/imdb/imdb_tt31834.gif

Релиз от - http//hqclub.net/images/hqclub.png
Автор рипа: Elheym

Выпущено: США, Бельгия
Продолжительность: 01:25:08
Перевод: профессиональный (полное дублирование), R5 + английский дубляж + оригинал (французский)
Субтитры: французские
Главы: присутствуют, сохранены оригинальные

Файл:
Формат: MKV
Качество: BDRip-AVC (источник: / Blu-ray Disc / 1080р)
Видео: 1024x576 (1.78:1), 23.976 fps, MPEG-4 AVC, ~2525 kbps avg, 0.179 bit/pixel
Аудио #1: 48 kHz, AC3 Dolby Digital, 3/2 (L,C,R,l,r) + LFE ch, ~384 kbps avg (RUS)
Аудио #2: 48 kHz, AC3 Dolby Digital, 3/2 (L,C,R,l,r) + LFE ch, ~384 kbps avg (ENG)
Аудио #3: 48 kHz, AC3 Dolby Digital, 3/2 (L,C,R,l,r) + LFE ch, ~384 kbps avg (FRE)
Размер: 2.18 GB
Сэмпл: скачать

http//lostpic.net/thumbs_images/b/6/c/b6c4c896289d9204f8eb29467cc41a0d.png http//lostpic.net/thumbs_images/0/c/2/0c2d5c374d5e052fe1b0a061c26ed7bd.png http//lostpic.net/thumbs_images/4/e/b/4eb9ae1fc6dcc0ca17ac71e43520cee0.png http//lostpic.net/thumbs_images/c/9/a/c9a77c64241f4da6553c62197394285f.png http//lostpic.net/thumbs_images/1/0/6/1069cddf1ef5b9b1efd41fd927d4f341.png http//lostpic.net/thumbs_images/3/a/a/3aa077f86ee28a3691aa083201704b18.png

"MediaInfo"
Уникальный идентификатор : 255126936216803855272464927113572470250 (0xBFEFA91D9AA108B59E666095408F4DEA)
Полное имя : The.House.of.Magic.2013.TRIPLE.BDRip-AVC.x264.AC3.-HQCLUB.mkv
Формат : Matroska
Версия формата : Version 2
Размер файла : 2,19 Гбайт
Продолжительность : 1 ч. 25 м.
Общий поток : 3676 Кбит/сек
Дата кодирования : UTC 2014-06-26 18:23:17
Программа кодирования : mkvmerge v5.2.0 ('I can't explain') built on Dec 18 2011 18:12:03
Библиотека кодирования : libebml v1.2.3 + libmatroska v1.3.0

Видео
Идентификатор : 1
Формат : AVC
Формат/Информация : Advanced Video Codec
Профиль формата : High@L4.1
Параметр CABAC формата : Да
Параметр ReFrames формата : 12 кадров
Идентификатор кодека : V_MPEG4/ISO/AVC
Продолжительность : 1 ч. 25 м.
Битрейт : 2525 Кбит/сек
Ширина : 1024 пикселя
Высота : 576 пикселей
Соотношение сторон : 16:9
Режим частоты кадров : Постоянный
Частота кадров : 23,976 кадра/сек
Цветовое пространство : YUV
Субдискретизация насыщенности : 4:2:0
Битовая глубина : 8 бит
Тип развёртки : Прогрессивная
Бит/(Пиксели*Кадры) : 0.179
Размер потока : 1,46 Гбайт (67%)
Заголовок : Кот Гром и заколдованный дом / The House of Magic / Le Manoir Magique (2013) BDRip-AVC by HQCLUB [Elheym]
Библиотека кодирования : x264 core 142 r2431 ac76440
Настройки программы : cabac=1 / ref=12 / deblock=1:-3:-2 / analyse=0x3:0x113 / me=umh / subme=11 / psy=1 / psy_rd=1.00:0.00 / mixed_ref=1 / me_range=32 / chroma_me=1 / trellis=2 / 8x8dct=1 / cqm=0 / deadzone=21,11 / fast_pskip=1 / chroma_qp_offset=-4 / threads=6 / lookahead_threads=1 / sliced_threads=0 / nr=0 / decimate=1 / interlaced=0 / bluray_compat=0 / constrained_intra=0 / bframes=10 / b_pyramid=2 / b_adapt=2 / b_bias=0 / direct=3 / weightb=1 / open_gop=0 / weightp=2 / keyint=240 / keyint_min=23 / scenecut=40 / intra_refresh=0 / rc_lookahead=40 / rc=2pass / mbtree=1 / bitrate=2525 / ratetol=1.0 / qcomp=0.60 / qpmin=10 / qpmax=69 / qpstep=4 / cplxblur=20.0 / qblur=0.5 / vbv_maxrate=50000 / vbv_bufsize=62500 / nal_hrd=none / filler=0 / ip_ratio=1.40 / aq=1:0.90
Язык : French
Default : Да
Forced : Нет

Аудио #1
Идентификатор : 2
Формат : AC-3
Формат/Информация : Audio Coding 3
Расширение режима : CM (complete main)
Параметр Endianness формата : Big
Идентификатор кодека : A_AC3
Продолжительность : 1 ч. 25 м.
Вид битрейта : Постоянный
Битрейт : 384 Кбит/сек
Каналы : 6 каналов
Расположение каналов : Front: L C R, Side: L R, LFE
Частота : 48,0 КГц
Битовая глубина : 16 бит
Метод сжатия : С потерями
Размер потока : 234 Мбайт (10%)
Заголовок : АС3 5.1 @ ~384 kbps - Dub, R5
Язык : Russian
Default : Нет
Forced : Нет

Аудио #2
Идентификатор : 3
Формат : AC-3
Формат/Информация : Audio Coding 3
Расширение режима : CM (complete main)
Параметр Endianness формата : Big
Идентификатор кодека : A_AC3
Продолжительность : 1 ч. 25 м.
Вид битрейта : Постоянный
Битрейт : 384 Кбит/сек
Каналы : 6 каналов
Расположение каналов : Front: L C R, Side: L R, LFE
Частота : 48,0 КГц
Битовая глубина : 16 бит
Метод сжатия : С потерями
Размер потока : 234 Мбайт (10%)
Заголовок : АС3 5.1 @ ~384 kbps - Eng dub
Язык : English
Default : Нет
Forced : Нет

Аудио #3
Идентификатор : 4
Формат : AC-3
Формат/Информация : Audio Coding 3
Расширение режима : CM (complete main)
Параметр Endianness формата : Big
Идентификатор кодека : A_AC3
Продолжительность : 1 ч. 25 м.
Вид битрейта : Постоянный
Битрейт : 384 Кбит/сек
Каналы : 6 каналов
Расположение каналов : Front: L C R, Side: L R, LFE
Частота : 48,0 КГц
Битовая глубина : 16 бит
Метод сжатия : С потерями
Размер потока : 234 Мбайт (10%)
Заголовок : АС3 5.1 @ ~384 kbps - Original
Язык : French
Default : Да
Forced : Нет

Текст
Идентификатор : 5
Формат : UTF-8
Идентификатор кодека : S_TEXT/UTF8
Идентификатор кодека/Информация : UTF-8 Plain Text
Заголовок : Full
Язык : French
Default : Нет
Forced : Нет

Меню
00:00:00.000 : :Chapter 01
00:04:28.768 : :Chapter 02
00:10:29.378 : :Chapter 03
00:15:52.076 : :Chapter 04
00:24:02.774 : :Chapter 05
00:31:46.321 : :Chapter 06
00:38:20.840 : :Chapter 07
00:45:34.148 : :Chapter 08
00:53:09.352 : :Chapter 09
01:01:10.875 : :Chapter 10
01:07:07.148 : :Chapter 11
01:17:59.549 : :Chapter 12
01:25:07.852 : :Chapter 13

"x264 log"
x264 [info]: frame I:1190 Avg QP:12.83 size:123350
x264 [info]: frame P:31902 Avg QP:16.28 size: 28810
x264 [info]: frame B:89381 Avg QP:20.55 size: 6088

x264 [info]: consecutive B-frames: 5.0% 4.7% 14.3% 24.3% 11.9% 35.2% 1.9% 1.0% 0.6% 0.6% 0.4%

x264 [info]: ref P L0: 56.1% 12.8% 12.5% 5.2% 3.2% 2.8% 2.0% 1.3% 1.0% 1.0% 0.9% 0.9% 0.2% 0.0%
x264 [info]: ref B L0: 79.7% 9.0% 4.4% 1.9% 1.4% 1.2% 0.9% 0.5% 0.5% 0.3% 0.2%
x264 [info]: ref B L1: 92.8% 7.2%


Ссылки для скачивания:

http//bt.hqclub.net/files/ok.png Торрент: Кот Гром и заколдованный дом / The House of Magic / Le Manoir Magique (2013) BDRip-AVC

Лучшая онлайн игра!


Публикация материалов сайта на сторонних ресурсах возможна только в неизменном виде.


Обсудить релиз на форуме

Вас также может заинтересовать:


  • 5
 (Голосов: 2)


Распечатать новость на принтере Мультфильм, Семейный