Вас Приветствует Релиз-группа HQCLUB


Помощь ресурсу, очень ВАЖНО!!!



.


WELCOME
Добро пожаловать в наше интернет - сообщество!

Всех нас объединяет одна страсть - страсть к высококачественному кино. А это наш сайт. Ежедневно здесь мы публикуем десятки качественных, свежих, а порой и эксклюзивных релизов, которые Вы можете скачать совершенно бесплатно и без каких-либо регистраций. Посему рекомендуем Вам добавить HQClub себе в закладки, а также подписаться на нашу ленту новостей, чтобы всегда быть в курсе всех событий. Ну а если Вы такой же синий фил, как и мы, то милости просим на наш форум. И в заключение, попробуйте зарегистрироваться, ведь не так это и сложно и займет всего лишь пару минут! Вот увидите, Вам у нас понравится и Вы вольетесь в наш дружный коллектив! Ну а пока - осматривайтесь = )
Мы рады Вам !





Приключения мистера Пибоди и Шермана / Mr. Peabody & Sherman (2014) BDRip 720p

Оформил: Elheym | 5 августа 2014 - 12:57:53 | Комментариев: 1 | Обращений: 1573 {bookmarks_news}

http//lostpic.net/orig_images/c/3/7/c37d3cb6ddfbba5df61941d5f9ada8f6.jpg

Информация о фильме:
Название: Приключения мистера Пибоди и Шермана
Оригинальное название: Mr. Peabody & Sherman
Год выхода: 2014
Жанр: мультфильм, фантастика, комедия, приключения, семейный
Режиссер: Роб Минкофф
Роли озвучивали: Тай Бурелл, Макс Чарльз, Эриель Винтер, Стефен Колбер, Лесли Манн, Эллисон Дженни, Стэнли Туччи, Том МакГрат, Лэйк Белл, Зак Каллисон

О мультфильме: Мистер Пибоди — бизнесмен, изобретатель, ученый, нобелевский лауреат, гурман, двукратный олимпийский чемпион и гений… который кроме всего прочего является собакой. При помощи своего самого неординарного изобретения — машины ВЕЙБЕК — мистер Пибоди и его приемный сын Шерман мгновенно перемещаются в прошлое, где становятся свидетелями самых важных исторических событий и общаются с известными историческими персонажами. Но когда Шерман нарушает правила путешествий во времени, нашим героям приходится вновь отправиться в путь — на сей раз с целью восстановления цепи исторических событий и спасения будущего. Кроме того, мистеру Пибоди предстоит справиться с самой сложной для него задачей — стать настоящим отцом для Шермана.

«Наперегонки с историей»



http//rating.kinopoisk.ru/463531.gif http//tracker.0day.kiev.ua/imdb/imdb_tt08635.gif

Релиз от - http//hqclub.net/images/hqclub.png
Автор рипа: Elheym

Выпущено: США, DreamWorks Animation, Pacific Data Images (PDI), Bullwinkle Studios
Продолжительность: 01:32:29
Перевод: профессиональный (полное дублирование) + дубляж (украинский) + оригинал (английский)
Субтитры: русские (полные), украинские (полные), английские (полные)
Главы: присутствуют, сохранены оригинальные

Файл:
Формат: MKV
Качество: BDRip 720p (источник: http//i28.fastpic.ru/big/2011/1013/a8/a3d28e80c9544f4c572189fc892ea8.gif / Blu-ray Disc EUR / 1080p)
Видео: 1280x694 (1.85:1), 23.976 fps, MPEG-4 AVC, ~6450 kbps avg, 0.303 bit/pixel
Аудио #1: 48 kHz, DTS Dolby Digital, 3/2 (L,C,R,l,r) + LFE ch, ~768 kbps (DUB)
Аудио #2: 48 kHz, AC3 Dolby Digital, 3/2 (L,C,R,l,r) + LFE ch, ~448 kbps (UKR.DUB)
Аудио #3: 48 kHz, DTS Dolby Digital, 3/2 (L,C,R,l,r) + LFE ch, ~1509 kbps (ENG)
Размер: 5.92 GB
Сэмпл: скачать

http//lostpic.net/thumbs_images/c/4/3/c436fc4250178f47738812e2855681.png http//lostpic.net/thumbs_images/a/b/8/ab898ccedd652f7daf6c14f994f26a.png http//lostpic.net/thumbs_images/d/f/3/df36b0eaf1a12318f2cec63c8a66.png http//lostpic.net/thumbs_images/9/a/c/9ac5a1e9cda6228459c5b947072afb.png http//lostpic.net/thumbs_images/4/c/0/4c0fef8ad21f593a200ea46aca3e52a9.png

"MediaInfo"

Уникальный идентификатор : 219636959037738625365975920892218670315 (0xA53C8A253958E24DBDB4B70115C77CEB)
Полное имя : Mr.Peabody.&.Sherman.2014.720p.BluRay.Rus.Ukr.Eng.-HQCLUB.mkv
Формат : Matroska
Версия формата : Version 2
Размер файла : 5,93 Гбайт
Продолжительность : 1 ч. 32 м.
Общий поток : 9175 Кбит/сек
Дата кодирования : UTC 2014-08-05 07:28:03
Программа кодирования : mkvmerge v5.2.0 ('I can't explain') built on Dec 18 2011 18:12:03
Библиотека кодирования : libebml v1.2.3 + libmatroska v1.3.0

Видео
Идентификатор : 1
Формат : AVC
Формат/Информация : Advanced Video Codec
Профиль формата : High@L4.1
Параметр CABAC формата : Да
Параметр ReFrames формата : 7 кадров
Идентификатор кодека : V_MPEG4/ISO/AVC
Продолжительность : 1 ч. 32 м.
Битрейт : 6450 Кбит/сек
Ширина : 1280 пикселей
Высота : 694 пикселя
Соотношение сторон : 1,85:1
Соотношение сторон в оригинале : 1,85:1
Режим частоты кадров : Постоянный
Частота кадров : 23,976 кадра/сек
Цветовое пространство : YUV
Субдискретизация насыщенности : 4:2:0
Битовая глубина : 8 бит
Тип развёртки : Прогрессивная
Бит/(Пиксели*Кадры) : 0.303
Размер потока : 4,05 Гбайт (68%)
Заголовок : Приключения мистера Пибоди и Шермана / Mr. Peabody & Sherman (2014) BDRip 720p by HQCLUB [Elheym]
Библиотека кодирования : x264 core 142 r2431 ac76440
Настройки программы : cabac=1 / ref=8 / deblock=1:-3:-2 / analyse=0x3:0x113 / me=umh / subme=11 / psy=1 / psy_rd=1.07:0.00 / mixed_ref=1 / me_range=32 / chroma_me=1 / trellis=2 / 8x8dct=1 / cqm=0 / deadzone=21,11 / fast_pskip=1 / chroma_qp_offset=-4 / threads=6 / lookahead_threads=1 / sliced_threads=0 / nr=0 / decimate=1 / interlaced=0 / bluray_compat=0 / constrained_intra=0 / bframes=7 / b_pyramid=1 / b_adapt=2 / b_bias=0 / direct=3 / weightb=1 / open_gop=0 / weightp=2 / keyint=240 / keyint_min=23 / scenecut=40 / intra_refresh=0 / rc_lookahead=40 / rc=2pass / mbtree=0 / bitrate=6450 / ratetol=1.0 / qcomp=0.60 / qpmin=10 / qpmax=69 / qpstep=4 / cplxblur=20.0 / qblur=0.5 / vbv_maxrate=50000 / vbv_bufsize=62500 / nal_hrd=none / filler=0 / ip_ratio=1.40 / pb_ratio=1.30 / aq=1:0.90
Язык : English
Default : Да
Forced : Нет

Аудио #1
Идентификатор : 2
Формат : DTS
Формат/Информация : Digital Theater Systems
Режим : 16
Параметр Endianness формата : Big
Идентификатор кодека : A_DTS
Продолжительность : 1 ч. 32 м.
Вид битрейта : Постоянный
Битрейт : 768 Кбит/сек
Каналы : 6 каналов
Расположение каналов : Front: L C R, Side: L R, LFE
Частота : 48,0 КГц
Битовая глубина : 24 бит
Метод сжатия : С потерями
Размер потока : 508 Мбайт (8%)
Заголовок : DTS 5.1 @ 768 kbps - Dub, BD EUR
Язык : Russian
Default : Нет
Forced : Нет

Аудио #2
Идентификатор : 3
Формат : AC-3
Формат/Информация : Audio Coding 3
Расширение режима : CM (complete main)
Параметр Endianness формата : Big
Идентификатор кодека : A_AC3
Продолжительность : 1 ч. 32 м.
Вид битрейта : Постоянный
Битрейт : 448 Кбит/сек
Каналы : 6 каналов
Расположение каналов : Front: L C R, Side: L R, LFE
Частота : 48,0 КГц
Битовая глубина : 16 бит
Метод сжатия : С потерями
Размер потока : 296 Мбайт (5%)
Заголовок : АС3 5.1 @ 448 kbps - Dub, BD EUR
Язык : Ukrainian
Default : Нет
Forced : Нет

Аудио #3
Идентификатор : 4
Формат : DTS
Формат/Информация : Digital Theater Systems
Профиль формата : ES
Режим : 16
Параметр Endianness формата : Big
Идентификатор кодека : A_DTS
Продолжительность : 1 ч. 32 м.
Вид битрейта : Постоянный
Битрейт : 1509 Кбит/сек
Каналы : 6 каналов
Расположение каналов : Front: L C R, Side: L R, LFE
Частота : 48,0 КГц
Битовая глубина : 24 бит
Метод сжатия : С потерями
Размер потока : 998 Мбайт (16%)
Заголовок : DTS 5.1 @ 1509 kbps - Original
Язык : English
Default : Нет
Forced : Нет

Текст #1
Идентификатор : 5
Формат : UTF-8
Идентификатор кодека : S_TEXT/UTF8
Идентификатор кодека/Информация : UTF-8 Plain Text
Заголовок : Full
Язык : Russian
Default : Нет
Forced : Нет

Текст #2
Идентификатор : 6
Формат : UTF-8
Идентификатор кодека : S_TEXT/UTF8
Идентификатор кодека/Информация : UTF-8 Plain Text
Заголовок : Full
Язык : Ukrainian
Default : Нет
Forced : Нет

Текст #3
Идентификатор : 7
Формат : UTF-8
Идентификатор кодека : S_TEXT/UTF8
Идентификатор кодека/Информация : UTF-8 Plain Text
Заголовок : Full
Язык : English
Default : Нет
Forced : Нет

Меню
00:00:00.000 : :Chapter 01
00:03:48.645 : :Chapter 02
00:07:12.223 : :Chapter 03
00:11:02.495 : :Chapter 04
00:13:30.017 : :Chapter 05
00:17:29.465 : :Chapter 06
00:21:48.515 : :Chapter 07
00:26:39.306 : :Chapter 08
00:28:40.176 : :Chapter 09
00:30:53.101 : :Chapter 10
00:33:57.452 : :Chapter 11
00:35:29.919 : :Chapter 12
00:37:47.181 : :Chapter 13
00:41:27.651 : :Chapter 14
00:44:47.685 : :Chapter 15
00:48:16.351 : :Chapter 16
00:51:48.980 : :Chapter 17
00:54:56.543 : :Chapter 18
00:58:32.800 : :Chapter 19
01:00:49.187 : :Chapter 20
01:02:53.186 : :Chapter 21
01:04:39.083 : :Chapter 22
01:08:22.264 : :Chapter 23
01:11:13.727 : :Chapter 24
01:14:52.654 : :Chapter 25
01:20:27.447 : :Chapter 26
01:21:40.312 : :Chapter 27
01:22:39.579 : :Chapter 28
01:32:29.293 : :Chapter 29

"x264 log"

x264 [info]: frame I:1203 Avg QP:13.60 size:132692
x264 [info]: frame P:42447 Avg QP:14.72 size: 54775
x264 [info]: frame B:89407 Avg QP:16.47 size: 22224

x264 [info]: consecutive B-frames: 8.1% 7.6% 22.7% 31.8% 15.2% 11.4% 1.8% 1.5%

x264 [info]: ref P L0: 59.8% 8.0% 14.6% 6.3% 4.5% 3.5% 2.9% 0.4% 0.0%
x264 [info]: ref B L0: 77.8% 10.6% 5.4% 2.9% 2.2% 1.1%
x264 [info]: ref B L1: 91.7% 8.3%


Ссылки для скачивания:

http//bt.hqclub.net/files/ok.png Торрент: Приключения мистера Пибоди и Шермана / Mr. Peabody & Sherman (2014) BDRip 720p

Лучшая онлайн игра!


Публикация материалов сайта на сторонних ресурсах возможна только в неизменном виде.


Обсудить релиз на форуме

Вас также может заинтересовать:


  • 5
 (Голосов: 1)


Распечатать новость на принтере Мультфильм, Фантастика, Комедия, Приключения, Семейный
Обновлено: 12.08.2014 - 15:37

КОММЕНТАРИИ

 №1. RedGeneral28

Статус: Новичок | Новостей: 0 | Комментариев: 48
RedGeneral28 Смотреть не успеваю)Спасибо)
~~~

5.08.2014 - 13:31   цитировать