Вас Приветствует Релиз-группа HQCLUB


Помощь ресурсу, очень ВАЖНО!!!



.


WELCOME
Добро пожаловать в наше интернет - сообщество!

Всех нас объединяет одна страсть - страсть к высококачественному кино. А это наш сайт. Ежедневно здесь мы публикуем десятки качественных, свежих, а порой и эксклюзивных релизов, которые Вы можете скачать совершенно бесплатно и без каких-либо регистраций. Посему рекомендуем Вам добавить HQClub себе в закладки, а также подписаться на нашу ленту новостей, чтобы всегда быть в курсе всех событий. Ну а если Вы такой же синий фил, как и мы, то милости просим на наш форум. И в заключение, попробуйте зарегистрироваться, ведь не так это и сложно и займет всего лишь пару минут! Вот увидите, Вам у нас понравится и Вы вольетесь в наш дружный коллектив! Ну а пока - осматривайтесь = )
Мы рады Вам !





ВАЛЛ·И / WALL·E (2008) BDRip-AVC

Оформил: Elheym | 7 сентября 2014 - 21:37:31 | Комментариев: 2 | Обращений: 804 {bookmarks_news}

http//lostpic.net/orig_images/1/8/7/1872819167902aa65e89b301ef5d.jpg

Информация о фильме:
Название: ВАЛЛ·И
Оригинальное название: WALL·E
Год выхода: 2008
Жанр: мультфильм, фантастика, мелодрама, приключения, семейный
Режиссер: Эндрю Стэнтон
Роли озвучивали: Бен Бертт, Элисса Найт, Джефф Гарлин, Фред Уиллард, Джон Ратценбергер, Кэти Нэджими, Сигурни Уивер

О фильме: Робот ВАЛЛ·И из года в год прилежно трудится на опустевшей Земле, очищая нашу планету от гор мусора, которые оставили после себя улетевшие в космос люди. Он и не представляет, что совсем скоро произойдут невероятные события, благодаря которым он встретит друзей, поднимется к звездам и даже сумеет изменить к лучшему своих бывших хозяев, совсем позабывших родную Землю.

«Любовь - дело техники»



http//rating.kinopoisk.ru/279102.gif http//tracker.0day.kiev.ua/imdb/imdb_tt0910970.gif

Релиз от - http//hqclub.net/images/hqclub.png
Автор рипа: Elheym

Выпущено: США, Pixar Animation Studios, Walt Disney Pictures
Продолжительность: 01:38:42
Перевод: Профессиональный (полное дублирование), BD EUR
Оригинальная аудио дорожка: английский
Субтитры: русские (полные, форсированные), украинские (полные, форсированные), английские (полные, полные SDH)
Главы: присутствуют, сохранены оригинальные

Дополнительные аудиодорожки:
+ Профессиональный (многоголосый, закадровый), С.Р.И.
+ Авторский (одноголосый, закадровый), Ю. Сербин

Файл:
Формат: MKV
Качество: BDRip-AVC (источник: http//i28.fastpic.ru/big/2011/1013/a8/a3d28e80c9544f4c572189fc892ea8.gif / Blu-ray EUR / 1080p) [Локализованный видеоряд]
Видео: 1152x480 (2.40:1), 23.976 fps, MPEG-4 AVC, ~2800 kbps avg, 0.211 bit/pixel, 8 bit
Аудио #1: AC3 Dolby Digital, 3/2 (L,C,R,l,r) + LFE ch, ~384 kbps (DUB)
Аудио #2: AC3 Dolby Digital, 3/2 (L,C,R,l,r) + LFE ch, ~384 kbps (UKR.DUB)
Аудио #3: AC3 Dolby Digital, 3/2 (L,C,R,l,r) + LFE ch, ~384 kbps (ENG)
Аудио #4: AC3 Dolby Digital, 3/2 (L,C,R,l,r) + LFE ch, ~384 kbps (MVO.S.R.I.) (отдельно)
Аудио #5: AC3 Dolby Digital, 3/2 (L,C,R,l,r) + LFE ch, ~384 kbps (AVO.SERBIN) (отдельно)
Размер: 2.72 GB
Сэмпл: скачать

http//lostpic.net/thumbs_images/a/7/1/a71b87346aee2112f63eccec9af24c2e.png http//lostpic.net/thumbs_images/4/4/a/44adbe22800b11e181f4ed1880bcddb1.png http//lostpic.net/thumbs_images/1/5/f/15fd31fc1073254a73f610e9196e6108.png http//lostpic.net/thumbs_images/7/f/6/7f6a16726f685a3ce2203194af311398.png http//lostpic.net/thumbs_images/3/0/3/30346a7d9e5f88b7be7ef13916b2a5bd.png http//lostpic.net/thumbs_images/5/e/2/5e2b8a828e117d92b01b2453a064512a.png

"MediaInfo"

Уникальный идентификатор : 174749475074759268278160512492777682863 (0x83778651828B69C5ADDC2469FF1EB7AF)
Полное имя : WALL·E.2008.TRIPLE.BDRip-AVC.x264.AC3.-HQCLUB.mkv
Формат : Matroska
Версия формата : Version 2
Размер файла : 2,73 Гбайт
Продолжительность : 1 ч. 38 м.
Общий поток : 3955 Кбит/сек
Дата кодирования : UTC 2014-09-07 16:33:56
Программа кодирования : mkvmerge v5.2.0 ('I can't explain') built on Dec 18 2011 18:12:03
Библиотека кодирования : libebml v1.2.3 + libmatroska v1.3.0
Attachment : Yes / Yes

Видео
Идентификатор : 1
Формат : AVC
Формат/Информация : Advanced Video Codec
Профиль формата : High@L4.1
Параметр CABAC формата : Да
Параметр ReFrames формата : 10 кадров
Идентификатор кодека : V_MPEG4/ISO/AVC
Продолжительность : 1 ч. 38 м.
Битрейт : 2800 Кбит/сек
Ширина : 1152 пикселя
Высота : 480 пикселей
Соотношение сторон : 2,40:1
Режим частоты кадров : Постоянный
Частота кадров : 23,976 кадра/сек
Цветовое пространство : YUV
Субдискретизация насыщенности : 4:2:0
Битовая глубина : 8 бит
Тип развёртки : Прогрессивная
Бит/(Пиксели*Кадры) : 0.211
Размер потока : 1,88 Гбайт (69%)
Заголовок : ВАЛЛ·И / WALL·E (2008) BDRip-AVC by HQCLUB [Elheym]
Библиотека кодирования : x264 core 142 r2453 ea0ca51
Настройки программы : cabac=1 / ref=10 / deblock=1:-1:-1 / analyse=0x3:0x113 / me=umh / subme=11 / psy=1 / psy_rd=0.84:0.00 / mixed_ref=1 / me_range=32 / chroma_me=1 / trellis=2 / 8x8dct=1 / cqm=0 / deadzone=21,11 / fast_pskip=0 / chroma_qp_offset=-4 / threads=6 / lookahead_threads=1 / sliced_threads=0 / nr=0 / decimate=1 / interlaced=0 / bluray_compat=0 / constrained_intra=0 / bframes=14 / b_pyramid=2 / b_adapt=2 / b_bias=0 / direct=3 / weightb=1 / open_gop=0 / weightp=2 / keyint=230 / keyint_min=23 / scenecut=40 / intra_refresh=0 / rc_lookahead=40 / rc=2pass / mbtree=1 / bitrate=2800 / ratetol=1.0 / qcomp=0.60 / qpmin=0 / qpmax=69 / qpstep=4 / cplxblur=20.0 / qblur=0.5 / vbv_maxrate=50000 / vbv_bufsize=62500 / nal_hrd=none / filler=0 / ip_ratio=1.40 / aq=1:0.90
Язык : English
Default : Да
Forced : Нет

Аудио #1
Идентификатор : 2
Формат : AC-3
Формат/Информация : Audio Coding 3
Расширение режима : CM (complete main)
Параметр Endianness формата : Big
Идентификатор кодека : A_AC3
Продолжительность : 1 ч. 38 м.
Вид битрейта : Постоянный
Битрейт : 384 Кбит/сек
Каналы : 6 каналов
Расположение каналов : Front: L C R, Side: L R, LFE
Частота : 48,0 КГц
Битовая глубина : 16 бит
Метод сжатия : С потерями
Размер потока : 271 Мбайт (10%)
Заголовок : АС3 5.1 @ 384 kbps - Dub, EUR
Язык : Russian
Default : Нет
Forced : Нет

Аудио #2
Идентификатор : 3
Формат : AC-3
Формат/Информация : Audio Coding 3
Расширение режима : CM (complete main)
Параметр Endianness формата : Big
Идентификатор кодека : A_AC3
Продолжительность : 1 ч. 38 м.
Вид битрейта : Постоянный
Битрейт : 384 Кбит/сек
Каналы : 6 каналов
Расположение каналов : Front: L C R, Side: L R, LFE
Частота : 48,0 КГц
Битовая глубина : 16 бит
Метод сжатия : С потерями
Размер потока : 271 Мбайт (10%)
Заголовок : АС3 5.1 @ 384 kbps - Ukr dub
Язык : Ukrainian
Default : Нет
Forced : Нет

Аудио #3
Идентификатор : 4
Формат : AC-3
Формат/Информация : Audio Coding 3
Расширение режима : CM (complete main)
Параметр Endianness формата : Big
Идентификатор кодека : A_AC3
Продолжительность : 1 ч. 38 м.
Вид битрейта : Постоянный
Битрейт : 384 Кбит/сек
Каналы : 6 каналов
Расположение каналов : Front: L C R, Side: L R, LFE
Частота : 48,0 КГц
Битовая глубина : 16 бит
Метод сжатия : С потерями
Размер потока : 271 Мбайт (10%)
Заголовок : АС3 5.1 @ 384 kbps - Original
Язык : English
Default : Нет
Forced : Нет

Текст #1
Идентификатор : 5
Формат : UTF-8
Идентификатор кодека : S_TEXT/UTF8
Идентификатор кодека/Информация : UTF-8 Plain Text
Заголовок : Full
Язык : Russian
Default : Нет
Forced : Нет

Текст #2
Идентификатор : 6
Формат : UTF-8
Идентификатор кодека : S_TEXT/UTF8
Идентификатор кодека/Информация : UTF-8 Plain Text
Заголовок : Forced
Язык : Russian
Default : Нет
Forced : Нет

Текст #3
Идентификатор : 7
Формат : UTF-8
Идентификатор кодека : S_TEXT/UTF8
Идентификатор кодека/Информация : UTF-8 Plain Text
Заголовок : Full
Язык : Ukrainian
Default : Нет
Forced : Нет

Текст #4
Идентификатор : 8
Формат : UTF-8
Идентификатор кодека : S_TEXT/UTF8
Идентификатор кодека/Информация : UTF-8 Plain Text
Заголовок : Forced
Язык : Ukrainian
Default : Нет
Forced : Нет

Текст #5
Идентификатор : 9
Формат : UTF-8
Идентификатор кодека : S_TEXT/UTF8
Идентификатор кодека/Информация : UTF-8 Plain Text
Заголовок : Full
Язык : English
Default : Нет
Forced : Нет

Текст #6
Идентификатор : 10
Формат : UTF-8
Идентификатор кодека : S_TEXT/UTF8
Идентификатор кодека/Информация : UTF-8 Plain Text
Заголовок : Full SDH
Язык : English
Default : Нет
Forced : Нет

Меню
00:00:00.000 : :Chapter 01
00:03:36.299 : :Chapter 02
00:05:49.682 : :Chapter 03
00:09:18.766 : :Chapter 04
00:12:03.430 : :Chapter 05
00:17:56.450 : :Chapter 06
00:19:33.380 : :Chapter 07
00:21:10.143 : :Chapter 08
00:23:46.800 : :Chapter 09
00:29:18.006 : :Chapter 10
00:31:25.091 : :Chapter 11
00:33:27.755 : :Chapter 12
00:35:20.117 : :Chapter 13
00:38:49.535 : :Chapter 14
00:42:53.529 : :Chapter 15
00:43:31.650 : :Chapter 16
00:51:08.940 : :Chapter 17
00:52:07.582 : :Chapter 18
00:54:47.450 : :Chapter 19
00:56:05.778 : :Chapter 20
00:57:58.016 : :Chapter 21
00:58:41.184 : :Chapter 22
01:02:14.897 : :Chapter 23
01:03:21.047 : :Chapter 24
01:05:49.695 : :Chapter 25
01:11:44.883 : :Chapter 26
01:15:54.215 : :Chapter 27
01:19:22.799 : :Chapter 28
01:20:14.684 : :Chapter 29
01:24:14.090 : :Chapter 30
01:25:45.765 : :Chapter 31
01:30:17.494 : :Chapter 32
01:38:41.748 : :Chapter 33

"x264 log"

x264 [info]: frame I:1217 Avg QP:11.41 size:109665
x264 [info]: frame P:34327 Avg QP:15.33 size: 32426
x264 [info]: frame B:106442 Avg QP:18.91 size: 7759

x264 [info]: consecutive B-frames: 3.6% 3.9% 14.0% 23.5% 14.7% 25.7% 5.3% 3.2% 1.8% 1.5% 0.9% 0.9% 0.3% 0.3% 0.3%

x264 [info]: ref P L0: 55.1% 8.0% 15.0% 6.8% 4.8% 3.5% 2.8% 1.6% 1.2% 1.0% 0.2% 0.0%
x264 [info]: ref B L0: 74.7% 13.2% 5.5% 2.5% 1.6% 1.1% 0.8% 0.4% 0.2%
x264 [info]: ref B L1: 91.7% 8.3%


Ссылки для скачивания:

http//bt.hqclub.net/files/ok.png Торрент: ВАЛЛ·И / WALL·E (2008) BDRip-AVC

Лучшая онлайн игра!


Публикация материалов сайта на сторонних ресурсах возможна только в неизменном виде.


Обсудить релиз на форуме

Вас также может заинтересовать:


  • 5
 (Голосов: 5)


Распечатать новость на принтере Мультфильм, Фантастика, Мелодрама, Приключения, Семейный
Обновлено: 16.09.2014 - 21:34

КОММЕНТАРИИ

 №1. ru4lan

Статус: Кинокритик | Новостей: 0 | Комментариев: 2736
ru4lan Мой формат и размерчик!
~~~

12.09.2014 - 21:05   цитировать  

 №2. Raw_hide

Статус: Новичок | Новостей: 0 | Комментариев: 37
Торрент не находится :(
~~~

14.09.2014 - 18:42   цитировать