Вас Приветствует Релиз-группа HQCLUB


Помощь ресурсу, очень ВАЖНО!!!



.


WELCOME
Добро пожаловать в наше интернет - сообщество!

Всех нас объединяет одна страсть - страсть к высококачественному кино. А это наш сайт. Ежедневно здесь мы публикуем десятки качественных, свежих, а порой и эксклюзивных релизов, которые Вы можете скачать совершенно бесплатно и без каких-либо регистраций. Посему рекомендуем Вам добавить HQClub себе в закладки, а также подписаться на нашу ленту новостей, чтобы всегда быть в курсе всех событий. Ну а если Вы такой же синий фил, как и мы, то милости просим на наш форум. И в заключение, попробуйте зарегистрироваться, ведь не так это и сложно и займет всего лишь пару минут! Вот увидите, Вам у нас понравится и Вы вольетесь в наш дружный коллектив! Ну а пока - осматривайтесь = )
Мы рады Вам !





Ледниковый период: Гигантское Рождество / Ice Age: A Mammoth Christmas (2011) 720р BDRip

Оформил: Sky™ | 3 января 2012 - 11:27:47 | Обращений: 2580 {bookmarks_news}

http//lostpic.net/images/3196c8c78f131b0127766b4bd6e61a.png

Информация о фильме
Название: Ледниковый период: Гигантское Рождество
Оригинальное название: Ice Age: A Mammoth Christmas
Год выхода: 2011
Жанр: мультфильм, короткометражка, комедия, приключения, семейный
Режиссер: Карен Дишер / Karen Disher
В ролях: Джон Легуизамо, Шонн Уильям Скотт, ТиДжей Миллер, Кьяра Браво, Куин Латифа, Дэнис Лири, Рэй Романо, Джошуа Раш, Крис Уэдж
Описание: Когда Сид случайно разрушает рождественский камень, Мэнни говорит ему, что Сид попал в черный список Санты, и что ленивцу придется лететь на северный полюс просить извинения у Санты. На северном полюсе Сид хотел все сделать как лучше, но только усугубил ситуацию. Теперь дело за Мэнни и компанией, только они объединившись сохранят Рождество для всего мира!

http//www.kinopoisk.ru/rating/6478.gif/ http//bluebird-hd.org/imdb/imdb_tt2100546.gif

Релиз от - http//hqclub.net/images/hqclub.png
Автор рипа: Sky™

Выпущено: США (Reel FX Creative Studios)
Продолжительность: 00:25:33
Перевод: Профессиональный (полное дублирование) + Оригинальная звуковая дорожка + Украинский (полное дублирование)
Субтитры: Русские Английские Украинские (*.srt)

Файл:
Формат: MKV
Качество: BDRip (источник: http//lostpic.net/images/a9cf10b471cacb4ee84f235ce91886dd.png / Blu-ray Disc / 1080p)
Видео: 1280x720 (1.77:1), 23.976 fps, x264@L4.1, crf, ~4025 kbps
Аудио #1: 48 kHz, AC3 Dolby Digital, 3/2 (L,C,R,l,r) + LFE ch, ~384.00 kbps avg [RUS]
Аудио #2: 48 kHz/24-bit, DTS, 3/2 (L,C,R,l,r) + LFE ch, ~1506 kbps avg [ENG]
Аудио #3: 48 kHz, AC3 Dolby Digital, 3/2 (L,C,R,l,r) + LFE ch, ~384.00 kbps avg [UKR]
Размер: 1175.29Mb
http//lostpic.net/images/1b899dddff9c84e7020a856612f5c646.png

http//lostpic.net/thumbs/ceaf8ae8393e5194007b2e43e0a3dc.png http//lostpic.net/thumbs/73222dbbc940ec8d2cac0f271fdb83c9.png http//lostpic.net/thumbs/74dabd84abdf22583474df6b6335e6b4.png http//lostpic.net/thumbs/1fa9d4a5b9d673809a9cc09c5be425ba.png http//lostpic.net/thumbs/4f4e674f3605c2d7cc1b790b587afda4.png http//lostpic.net/thumbs/fe237e4ad7797d4e8375fb71f01477.png
MediaInfo

Полное имя : Lednikovyj.period.Gigantskoe.Rozhdestvo.2011.BDRip.720p.H264.AC3.DTS.mkv
Формат : Matroska
Версия формата : Version 2
Размер файла : 1,15 Гбайт
Продолжительность : 25 м.
Общий поток : 6430 Кбит/сек
Дата кодирования : UTC 2012-01-03 05:41:44
Программа кодирования : mkvmerge v4.9.1 ('Ich will') сборка от Jul 11 2011 23:53:15
Библиотека кодирования : libebml v1.2.1 + libmatroska v1.1.1

Видео
Идентификатор : 1
Формат : AVC
Формат/Информация : Advanced Video Codec
Профиль формата : High@L4.1
Параметр CABAC формата : Да
Параметр ReFrames формата : 4 кадра
Идентификатор кодека : V_MPEG4/ISO/AVC
Продолжительность : 25 м.
Битрейт : 4025 Кбит/сек
Ширина : 1280 пикселей
Высота : 720 пикселей
Соотношение сторон : 16:9
Частота кадров : 23,976 кадра/сек
Цветовое пространство : YUV
Субдискретизация насыщенности : 4:2:0
Битовая глубина : 8 бит
Тип развёртки : Прогрессивная
Бит/(Пиксели*Кадры) : 0.182
Размер потока : 736 Мбайт (63%)
Заголовок : Ледниковый период: Гигантское Рождество / Ice Age: A Mammoth Christmas (2011) 720р BDRip by Sky™ | HQCLUB
Библиотека кодирования : x264 core 116 r2074 2641b9e
Настройки программы : cabac=1 / ref=2 / deblock=1:-3:-3 / analyse=0x3:0x113 / me=hex / subme=11 / psy=1 / psy_rd=0.92:0.10 / mixed_ref=1 / me_range=16 / chroma_me=1 / trellis=2 / 8x8dct=1 / cqm=0 / deadzone=21,11 / fast_pskip=1 / chroma_qp_offset=-3 / threads=3 / sliced_threads=0 / nr=0 / decimate=1 / interlaced=0 / bluray_compat=0 / constrained_intra=0 / bframes=2 / b_pyramid=2 / b_adapt=2 / b_bias=0 / direct=1 / weightb=1 / open_gop=0 / weightp=2 / keyint=250 / keyint_min=23 / scenecut=40 / intra_refresh=0 / rc=crf / mbtree=0 / crf=19.0 / qcomp=0.60 / qpmin=10 / qpmax=51 / qpstep=4 / ip_ratio=1.40 / pb_ratio=1.30 / aq=1:0.90
Язык : English

Аудио #1
Идентификатор : 2
Формат : AC-3
Формат/Информация : Audio Coding 3
Расширение режима : CM (complete main)
Идентификатор кодека : A_AC3
Продолжительность : 25 м.
Вид битрейта : Постоянный
Битрейт : 384 Кбит/сек
Каналы : 6 каналов
Расположение каналов : Front: L C R, Side: L R, LFE
Частота : 48,0 КГц
Битовая глубина : 16 бит
Метод сжатия : С потерями
Размер потока : 70,2 Мбайт (6%)
Заголовок : Дубляж AC3 5.1 @ 384 kbps
Язык : Russian

Аудио #2
Идентификатор : 3
Формат : DTS
Формат/Информация : Digital Theater Systems
Идентификатор кодека : A_DTS
Продолжительность : 25 м.
Вид битрейта : Постоянный
Битрейт : 1510 Кбит/сек
Каналы : 6 каналов
Расположение каналов : Front: L C R, Side: L R, LFE
Частота : 48,0 КГц
Битовая глубина : 24 бит
Метод сжатия : С потерями
Размер потока : 276 Мбайт (23%)
Заголовок : Оригинал DTS 5.1 @ 1509 kbps
Язык : English

Аудио #3
Идентификатор : 4
Формат : AC-3
Формат/Информация : Audio Coding 3
Расширение режима : CM (complete main)
Идентификатор кодека : A_AC3
Продолжительность : 25 м.
Вид битрейта : Постоянный
Битрейт : 384 Кбит/сек
Каналы : 6 каналов
Расположение каналов : Front: L C R, Side: L R, LFE
Частота : 48,0 КГц
Битовая глубина : 16 бит
Метод сжатия : С потерями
Размер потока : 70,2 Мбайт (6%)
Заголовок : Дубляж AC3 5.1 @ 384 kbps
Язык : Ukrainian

Текст #1
Идентификатор : 5
Формат : UTF-8
Идентификатор кодека : S_TEXT/UTF8
Идентификатор кодека/Информация : UTF-8 Plain Text
Заголовок : Полные
Язык : Russian

Текст #2
Идентификатор : 6
Формат : UTF-8
Идентификатор кодека : S_TEXT/UTF8
Идентификатор кодека/Информация : UTF-8 Plain Text
Заголовок : Полные
Язык : Ukrainian

Текст #3
Идентификатор : 7
Формат : UTF-8
Идентификатор кодека : S_TEXT/UTF8
Идентификатор кодека/Информация : UTF-8 Plain Text
Заголовок : Полные
Язык : English

Меню
00:00:00.000 : en:00:00:00.000
00:01:10.195 : en:00:01:10.195
00:06:00.026 : en:00:06:00.026
00:06:52.454 : en:00:06:52.454
00:10:55.738 : en:00:10:55.738
00:13:41.946 : en:00:13:41.946
00:17:47.858 : en:00:17:47.858
00:21:25.576 : en:00:21:25.576

log
---[NoImage] x264 [info]: frame I:431 Avg QP:15.64 size:162131
---[NoImage] x264 [info]: frame P:14725 Avg QP:18.85 size: 31924
---[NoImage] x264 [info]: frame B:21603 Avg QP:22.22 size: 11836
---[NoImage] x264 [info]: consecutive B-frames: 8.2% 14.8% 77.1%
---[NoImage] x264 [info]: mb I I16..4: 11.2% 61.3% 27.4%
---[NoImage] x264 [info]: mb P I16..4: 1.3% 9.0% 1.6% P16..4: 18.6% 19.7% 8.2% 0.0% 0.0% skip:41.6%
---[NoImage] x264 [info]: mb B I16..4: 0.2% 1.2% 0.2% B16..8: 19.5% 12.0% 2.8% direct: 3.2% skip:60.9% L0:30.1% L1:50.0% BI:20.0%
---[NoImage] x264 [info]: 8x8 transform intra:73.4% inter:51.9%
---[NoImage] x264 [info]: coded y,uvDC,uvAC intra: 83.0% 84.0% 64.4% inter: 14.8% 13.7% 6.0%
---[NoImage] x264 [info]: i16 v,h,dc,p: 14% 12% 8% 66%
---[NoImage] x264 [info]: i8 v,h,dc,ddl,ddr,vr,hd,vl,hu: 8% 10% 7% 9% 12% 12% 13% 12% 16%
---[NoImage] x264 [info]: i4 v,h,dc,ddl,ddr,vr,hd,vl,hu: 8% 9% 6% 9% 16% 13% 14% 11% 15%
---[NoImage] x264 [info]: i8c dc,h,v,p: 36% 26% 16% 21%
---[NoImage] x264 [info]: Weighted P-Frames: Y:3.5% UV:2.6%
---[NoImage] x264 [info]: ref P L0: 65.7% 13.1% 20.9% 0.3%
---[NoImage] x264 [info]: ref B L0: 83.5% 16.5%
---[NoImage] x264 [info]: ref B L1: 91.5% 8.5%


Ссылки для скачивания:

http//bt.hqclub.net/files/ok.png Торрент: Ледниковый период: Гигантское Рождество / Ice Age: A Mammoth Christmas (2011) 720р BDRip

Лучшая онлайн игра!


Публикация материалов сайта на сторонних ресурсах возможна только в неизменном виде.


Обсудить релиз на форуме

Вас также может заинтересовать:


  • 4
 (Голосов: 9)


Распечатать новость на принтере Мультфильм, Короткометражка, Комедия, Приключения, Семейный
Обновлено: 5.01.2012 - 14:04