Вас Приветствует Релиз-группа HQCLUB


Помощь ресурсу, очень ВАЖНО!!!



.


WELCOME
Добро пожаловать в наше интернет - сообщество!

Всех нас объединяет одна страсть - страсть к высококачественному кино. А это наш сайт. Ежедневно здесь мы публикуем десятки качественных, свежих, а порой и эксклюзивных релизов, которые Вы можете скачать совершенно бесплатно и без каких-либо регистраций. Посему рекомендуем Вам добавить HQClub себе в закладки, а также подписаться на нашу ленту новостей, чтобы всегда быть в курсе всех событий. Ну а если Вы такой же синий фил, как и мы, то милости просим на наш форум. И в заключение, попробуйте зарегистрироваться, ведь не так это и сложно и займет всего лишь пару минут! Вот увидите, Вам у нас понравится и Вы вольетесь в наш дружный коллектив! Ну а пока - осматривайтесь = )
Мы рады Вам !





Толстяк против всех / Paul Blart: Mall Cop 2 (2015) BDRip-AVC

Оформил: Elheym | 20 августа 2015 - 19:44:09 | Обращений: 521 {bookmarks_news}

http//lostpic.net/orig_images/5/0/0/50085e93ebbc8b563b76264acdf9ce11.jpg

Информация о фильме:
Название: Толстяк против всех
Оригинальное название: Paul Blart: Mall Cop 2
Год выхода: 2015
Жанр: комедия, боевик
Режиссер: Энди Фикмен / Andy Fickman
В ролях: Кевин Джеймс, Рейни Родригес, Эдуардо Верастеги, Даниэлла Алонсо, Нил МакДонаф, Дэвид Генри, Д.Б. Вудсайд, Николас Туртурро, Лони Лав, Гари Валентайн

О фильме: Охранник Пол отправляется в Лас-Вегас, чтобы посетить посвященную охране выставку вместе со своей дочерью Майей, прежде чем она уедет в колледж. На выставке Пол случайно узнает об ограблении и решает задержать преступников…

«Vegas has a new high roller»



http//rating.kinopoisk.ru/819054.gif http//tracker.0day.kiev.ua/imdb/imdb_tt3450650.gif

Релиз от - http//hqclub.net/images/hqclub.png
Автор рипа: Elheym

Выпущено: США ‖ Columbia Pictures, Happy Madison Productions, Hey Eddie, LStar Capital, Sony Pictures Entertainment (SPE)
Продолжительность: 01:34:00
Перевод: Профессиональный (многоголосый, закадровый) BD EUR
Оригинальная аудиодорожка: английская
Субтитры: русские (полные: BD, iTunes), украинские (полные), английские (полные х3, SDH, SDH цветные)

Дополнительные аудиодорожки:
+ Профессиональный (многоголосый, закадровый) украинский

Файл:
Формат: MKV
Качество: BDRip-AVC (источник: http//i28.fastpic.ru/big/2011/1013/a8/a3d28e80c9544f4c572189fc892ea8.gif / Blu-ray EUR [PAUL_BLART_MALL_COP_2_HDCLUB] / 1080p)
Видео: 1146x618 (1.85:1), 23.976 fps, MPEG-4 AVC, ~4500 kbps avg, 0.265 bit/pixel
Аудио #1: 48 kHz, AC3 Dolby Digital, 3/2 (L,C,R,l,r) + LFE ch, ~448 kbps avg (DUB)
Аудио #2: 48 kHz, AC3 Dolby Digital, 3/2 (L,C,R,l,r) + LFE ch, ~448 kbps avg (ENG)
Аудио #3: 48 kHz, AC3 Dolby Digital, 3/2 (L,C,R,l,r) + LFE ch, ~448 kbps avg (UKR.MVO) (отдельно)
Сэмпл: скачать

http//lostpic.net/thumbs_images/3/6/1/3614f33cbf392d9f224c3b065d5e4197.png http//lostpic.net/thumbs_images/8/b/c/8bc8ef4af7314c17e631172dffe8.png http//lostpic.net/thumbs_images/b/b/0/bb0ab54ac7c13e824c361cd4a3ba3a2e.png http//lostpic.net/thumbs_images/5/2/9/52918db4687fabce1ebf253df7816d.png http//lostpic.net/thumbs_images/4/f/f/4ffccb1138aa7564382e744b232a588a.png

"MediaInfo"

Уникальный идентификатор : 231444324950051524691012861408508051675 (0xAE1E8E3B03899B448D0CC7EF8ADB00DB)
Полное имя : Paul.Blart.Mall.Cop.2.2015.DUAL.BDRip-AVC.x264.AC3.-HQCLUB.mkv
Формат : Matroska
Версия формата : Version 2
Размер файла : 3,54 Гбайт
Продолжительность : 1 ч. 34 м.
Общий поток : 5396 Кбит/сек
Название фильма : Толстяк против всех / Paul Blart: Mall Cop 2 (2015) BDRip-AVC by Elheym [HQCLUB]
Дата кодирования : UTC 2015-08-20 15:57:20
Программа кодирования : mkvmerge v5.2.0 ('I can't explain') built on Dec 18 2011 18:12:03
Библиотека кодирования : libebml v1.2.3 + libmatroska v1.3.0
Attachements : Cover.jpg

Видео
Идентификатор : 1
Формат : AVC
Формат/Информация : Advanced Video Codec
Профиль формата : High@L4
Параметр CABAC формата : Да
Параметр ReFrames формата : 10 кадров
Идентификатор кодека : V_MPEG4/ISO/AVC
Продолжительность : 1 ч. 34 м.
Битрейт : 4500 Кбит/сек
Ширина : 1146 пикселей
Высота : 618 пикселей
Соотношение сторон : 1,85:1
Режим частоты кадров : Постоянный
Частота кадров : 23,976 кадра/сек
Цветовое пространство : YUV
Субдискретизация насыщенности : 4:2:0
Битовая глубина : 8 бит
Тип развёртки : Прогрессивная
Бит/(Пиксели*Кадры) : 0.265
Размер потока : 2,88 Гбайт (81%)
Заголовок : Толстяк против всех / Paul Blart: Mall Cop 2 (2015) BDRip-AVC by Elheym [HQCLUB]
Библиотека кодирования : x264 core 148 r2579kMod 73ae2d1
Настройки программы : cabac=1 / ref=10 / deblock=1:-2:-2 / analyse=0x3:0x113 / me=umh / subme=11 / psy=1 / fade_compensate=0.00 / psy_rd=1.00:0.05 / mixed_ref=1 / me_range=32 / chroma_me=1 / trellis=2 / 8x8dct=1 / cqm=0 / deadzone=21,11 / fast_pskip=0 / chroma_qp_offset=-3 / threads=6 / lookahead_threads=2 / sliced_threads=0 / nr=0 / decimate=0 / interlaced=0 / bluray_compat=0 / constrained_intra=0 / fgo=0 / bframes=8 / b_pyramid=2 / b_adapt=2 / b_bias=0 / direct=3 / weightb=1 / open_gop=0 / weightp=2 / keyint=240 / keyint_min=23 / scenecut=40 / intra_refresh=0 / rc_lookahead=80 / rc=2pass / mbtree=0 / bitrate=4500 / ratetol=1.0 / qcomp=0.80 / qpmin=0 / qpmax=69 / qpstep=4 / cplxblur=20.0 / qblur=0.5 / vbv_maxrate=20000 / vbv_bufsize=25000 / nal_hrd=none / filler=0 / ip_ratio=1.30 / pb_ratio=1.30 / aq=2:0.70 / zones=128434,135234,b=0.32
Язык : English
Default : Да
Forced : Нет

Аудио #1
Идентификатор : 2
Формат : AC-3
Формат/Информация : Audio Coding 3
Расширение режима : CM (complete main)
Параметр Endianness формата : Big
Идентификатор кодека : A_AC3
Продолжительность : 1 ч. 34 м.
Вид битрейта : Постоянный
Битрейт : 448 Кбит/сек
Каналы : 6 каналов
Расположение каналов : Front: L C R, Side: L R, LFE
Частота : 48,0 КГц
Метод сжатия : С потерями
Размер потока : 301 Мбайт (8%)
Заголовок : АС3 5.1 @ 448 kbps - MVO, BD EUR
Язык : Russian
Default : Нет
Forced : Нет

Аудио #2
Идентификатор : 3
Формат : AC-3
Формат/Информация : Audio Coding 3
Расширение режима : CM (complete main)
Параметр Endianness формата : Big
Идентификатор кодека : A_AC3
Продолжительность : 1 ч. 34 м.
Вид битрейта : Постоянный
Битрейт : 448 Кбит/сек
Каналы : 6 каналов
Расположение каналов : Front: L C R, Side: L R, LFE
Частота : 48,0 КГц
Метод сжатия : С потерями
Размер потока : 301 Мбайт (8%)
Заголовок : АС3 5.1 @ 448 kbps - Original
Язык : English
Default : Нет
Forced : Нет

Текст #1
Идентификатор : 4
Формат : UTF-8
Идентификатор кодека : S_TEXT/UTF8
Идентификатор кодека/Информация : UTF-8 Plain Text
Заголовок : Full, BD
Язык : Russian
Default : Нет
Forced : Нет

Текст #2
Идентификатор : 5
Формат : UTF-8
Идентификатор кодека : S_TEXT/UTF8
Идентификатор кодека/Информация : UTF-8 Plain Text
Заголовок : Full, iTunes
Язык : Russian
Default : Нет
Forced : Нет

Текст #3
Идентификатор : 6
Формат : UTF-8
Идентификатор кодека : S_TEXT/UTF8
Идентификатор кодека/Информация : UTF-8 Plain Text
Заголовок : Full
Язык : Ukrainian
Default : Нет
Forced : Нет

Текст #4
Идентификатор : 7
Формат : UTF-8
Идентификатор кодека : S_TEXT/UTF8
Идентификатор кодека/Информация : UTF-8 Plain Text
Заголовок : Full, iTunes
Язык : English
Default : Нет
Forced : Нет

Текст #5
Идентификатор : 8
Формат : UTF-8
Идентификатор кодека : S_TEXT/UTF8
Идентификатор кодека/Информация : UTF-8 Plain Text
Заголовок : Full, BD
Язык : English
Default : Нет
Forced : Нет

Текст #6
Идентификатор : 9
Формат : UTF-8
Идентификатор кодека : S_TEXT/UTF8
Идентификатор кодека/Информация : UTF-8 Plain Text
Заголовок : Full
Язык : English
Default : Нет
Forced : Нет

Текст #7
Идентификатор : 10
Формат : UTF-8
Идентификатор кодека : S_TEXT/UTF8
Идентификатор кодека/Информация : UTF-8 Plain Text
Заголовок : SDH
Язык : English
Default : Нет
Forced : Нет

Текст #8
Идентификатор : 11
Формат : UTF-8
Идентификатор кодека : S_TEXT/UTF8
Идентификатор кодека/Информация : UTF-8 Plain Text
Заголовок : SDH Colored
Язык : English
Default : Нет
Forced : Нет

Меню
00:00:00.000 : :Chapter 01
00:04:22.345 : :Chapter 02
00:14:20.526 : :Chapter 03
00:20:36.818 : :Chapter 04
00:25:51.216 : :Chapter 05
00:32:21.439 : :Chapter 06
00:36:46.203 : :Chapter 07
00:39:57.061 : :Chapter 08
00:47:54.955 : :Chapter 09
00:53:27.162 : :Chapter 10
00:59:12.507 : :Chapter 11
01:06:07.964 : :Chapter 12
01:12:24.673 : :Chapter 13
01:19:40.692 : :Chapter 14
01:23:42.851 : :Chapter 15
01:27:24.072 : :Chapter 16

"x264 log"

x264 [info]: frame I:1743 Avg QP:15.36 size:127242
x264 [info]: frame P:33114 Avg QP:17.65 size: 44998
x264 [info]: frame B:100378 Avg QP:19.71 size: 14528

x264 [info]: consecutive B-frames: 2.9% 3.9% 8.0% 45.4% 13.6% 19.8% 4.0% 2.1% 0.2%

x264 [info]: ref P L0: 49.0% 10.1% 17.8% 6.0% 5.2% 3.4% 3.3% 1.7% 1.8% 1.5% 0.2% 0.0%
x264 [info]: ref B L0: 80.1% 9.8% 3.9% 2.1% 1.4% 1.1% 0.9% 0.4% 0.2%
x264 [info]: ref B L1: 94.9% 5.1%


Ссылки для скачивания:

http//bt.hqclub.net/files/ok.png Торрент: Толстяк против всех / Paul Blart: Mall Cop 2 (2015) BDRip-AVC

Лучшая онлайн игра!


Публикация материалов сайта на сторонних ресурсах возможна только в неизменном виде.


Обсудить релиз на форуме

Вас также может заинтересовать:


  • 5
 (Голосов: 5)


Распечатать новость на принтере Комедия, Боевик