Вас Приветствует Релиз-группа HQCLUB


Помощь ресурсу, очень ВАЖНО!!!



.


WELCOME
Добро пожаловать в наше интернет - сообщество!

Всех нас объединяет одна страсть - страсть к высококачественному кино. А это наш сайт. Ежедневно здесь мы публикуем десятки качественных, свежих, а порой и эксклюзивных релизов, которые Вы можете скачать совершенно бесплатно и без каких-либо регистраций. Посему рекомендуем Вам добавить HQClub себе в закладки, а также подписаться на нашу ленту новостей, чтобы всегда быть в курсе всех событий. Ну а если Вы такой же синий фил, как и мы, то милости просим на наш форум. И в заключение, попробуйте зарегистрироваться, ведь не так это и сложно и займет всего лишь пару минут! Вот увидите, Вам у нас понравится и Вы вольетесь в наш дружный коллектив! Ну а пока - осматривайтесь = )
Мы рады Вам !





Толстяк против всех / Paul Blart: Mall Cop 2 (2015) BDRip 720p

Оформил: Elheym | 21 августа 2015 - 20:46:05 | Обращений: 632 {bookmarks_news}

http//lostpic.net/orig_images/5/0/0/50085e93ebbc8b563b76264acdf9ce11.jpg

Информация о фильме:
Название: Толстяк против всех
Оригинальное название: Paul Blart: Mall Cop 2
Год выхода: 2015
Жанр: комедия, боевик
Режиссер: Энди Фикмен / Andy Fickman
В ролях: Кевин Джеймс, Рейни Родригес, Эдуардо Верастеги, Даниэлла Алонсо, Нил МакДонаф, Дэвид Генри, Д.Б. Вудсайд, Николас Туртурро, Лони Лав, Гари Валентайн

О фильме: Охранник Пол отправляется в Лас-Вегас, чтобы посетить посвященную охране выставку вместе со своей дочерью Майей, прежде чем она уедет в колледж. На выставке Пол случайно узнает об ограблении и решает задержать преступников…

«Vegas has a new high roller»



http//rating.kinopoisk.ru/819054.gif http//tracker.0day.kiev.ua/imdb/imdb_tt3450650.gif

Релиз от - http//hqclub.net/images/hqclub.png
Автор рипа: Elheym

Выпущено: США ‖ Columbia Pictures, Happy Madison Productions, Hey Eddie, LStar Capital, Sony Pictures Entertainment (SPE)
Продолжительность: 01:34:00
Перевод 1: Профессиональный (многоголосый, закадровый) BD EUR
Перевод 2: Профессиональный (многоголосый, закадровый) украинский
Оригинальная аудиодорожка: английская
Субтитры: русские (полные: BD, iTunes), украинские (полные), английские (полные х3, SDH, SDH цветные)
Главы: присутствуют, сохранены оригинальные

Файл:
Формат: MKV
Качество: BDRip 720p (источник: http//i28.fastpic.ru/big/2011/1013/a8/a3d28e80c9544f4c572189fc892ea8.gif / Blu-ray EUR [PAUL_BLART_MALL_COP_2_HDCLUB] / 1080p)
Видео: 1280x690 (1.85:1), 23.976 fps, MPEG-4 AVC, ~6600 kbps avg, 0.312 bit/pixel
Аудио #1: 48 kHz, AC3 Dolby Digital, 3/2 (L,C,R,l,r) + LFE ch, ~640 kbps avg (DUB)
Аудио #2: 48 kHz, AC3 Dolby Digital, 3/2 (L,C,R,l,r) + LFE ch, ~640 kbps avg (UKR.MVO)
Аудио #3: 48 kHz, AC3 Dolby Digital, 3/2 (L,C,R,l,r) + LFE ch, ~640 kbps avg (ENG)
Сэмпл: скачать

http//lostpic.net/thumbs_images/b/8/b/b8bd4ea0e674d6fdb8732b86ada5.png http//lostpic.net/thumbs_images/5/6/2/56295ca313a878f65bede082a184f394.png http//lostpic.net/thumbs_images/a/c/e/acef983abd23519ad87b90d32681a265.png http//lostpic.net/thumbs_images/e/4/5/e4c82864bb6563def7fda1333e5933.png http//lostpic.net/thumbs_images/d/9/b/d9ba1e373f3ae28d97ae8ccd6014.png

"MediaInfo"

Уникальный идентификатор : 199705006440661545800589599276564770261 (0x963DC90286F4C127B71A0ACC0F986DD5)
Полное имя : Paul.Blart.Mall.Cop.2.2015.2015.720p.BluRay.Rus.Ukr.Eng.-HQCLUB.mkv
Формат : Matroska
Версия формата : Version 2
Размер файла : 5,59 Гбайт
Продолжительность : 1 ч. 34 м.
Общий поток : 8520 Кбит/сек
Название фильма : Толстяк против всех / Paul Blart: Mall Cop 2 (2015) BDRip 720p by Elheym [HQCLUB]
Дата кодирования : UTC 2015-08-21 16:54:15
Программа кодирования : mkvmerge v5.2.0 ('I can't explain') built on Dec 18 2011 18:12:03
Библиотека кодирования : libebml v1.2.3 + libmatroska v1.3.0
Attachements : Cover.jpg

Видео
Идентификатор : 1
Формат : AVC
Формат/Информация : Advanced Video Codec
Профиль формата : High@L4.1
Параметр CABAC формата : Да
Параметр ReFrames формата : 9 кадров
Идентификатор кодека : V_MPEG4/ISO/AVC
Продолжительность : 1 ч. 34 м.
Битрейт : 6600 Кбит/сек
Ширина : 1280 пикселей
Высота : 690 пикселей
Соотношение сторон : 1,85:1
Режим частоты кадров : Постоянный
Частота кадров : 23,976 кадра/сек
Цветовое пространство : YUV
Субдискретизация насыщенности : 4:2:0
Битовая глубина : 8 бит
Тип развёртки : Прогрессивная
Бит/(Пиксели*Кадры) : 0.312
Размер потока : 4,22 Гбайт (75%)
Заголовок : Толстяк против всех / Paul Blart: Mall Cop 2 (2015) BDRip 720p by Elheym [HQCLUB]
Библиотека кодирования : x264 core 148 r2579+50 65f745f t_mod_Custom [8-bit@all X86_64]
Настройки программы : cabac=1 / ref=9 / deblock=1:-2:-2 / analyse=0x3:0x113 / me=umh / subme=11 / psy=1 / fade_compensate=0.00 / psy_rd=1.00:0.05 / mixed_ref=1 / me_range=32 / chroma_me=1 / trellis=2 / 8x8dct=1 / cqm=0 / deadzone=21,11 / fast_pskip=0 / chroma_qp_offset=-3 / threads=6 / lookahead_threads=2 / sliced_threads=0 / nr=0 / decimate=0 / interlaced=0 / bluray_compat=0 / constrained_intra=0 / fgo=0 / bframes=8 / b_pyramid=2 / b_adapt=2 / b_bias=0 / direct=3 / weightb=1 / open_gop=0 / weightp=2 / keyint=240 / keyint_min=23 / scenecut=40 / intra_refresh=0 / rc_lookahead=80 / rc=2pass / mbtree=0 / bitrate=6600 / ratetol=1.0 / qcomp=0.80 / qpmin=0:0:0 / qpmax=69:69:69 / qpstep=4 / cplxblur=20.0 / qblur=0.5 / vbv_maxrate=50000 / vbv_bufsize=62500 / nal_hrd=none / filler=0 / ip_ratio=1.30 / pb_ratio=1.30 / aq=2:0.65 / aq-sensitivity=13.00 / aq-factor=1.00:1.00:1.00 / aq2=0 / aq3=0
Язык : English
Default : Да
Forced : Нет

Аудио #1
Идентификатор : 2
Формат : AC-3
Формат/Информация : Audio Coding 3
Расширение режима : CM (complete main)
Параметр Endianness формата : Big
Идентификатор кодека : A_AC3
Продолжительность : 1 ч. 34 м.
Вид битрейта : Постоянный
Битрейт : 640 Кбит/сек
Каналы : 6 каналов
Расположение каналов : Front: L C R, Side: L R, LFE
Частота : 48,0 КГц
Метод сжатия : С потерями
Размер потока : 430 Мбайт (8%)
Заголовок : АС3 5.1 @ 640 kbps - MVO, BD EUR
Язык : Russian
Default : Нет
Forced : Нет

Аудио #2
Идентификатор : 3
Формат : AC-3
Формат/Информация : Audio Coding 3
Расширение режима : CM (complete main)
Параметр Endianness формата : Big
Идентификатор кодека : A_AC3
Продолжительность : 1 ч. 34 м.
Вид битрейта : Постоянный
Битрейт : 640 Кбит/сек
Каналы : 6 каналов
Расположение каналов : Front: L C R, Side: L R, LFE
Частота : 48,0 КГц
Метод сжатия : С потерями
Размер потока : 430 Мбайт (8%)
Заголовок : АС3 5.1 @ 640 kbps - MVO, BD EUR
Язык : Ukrainian
Default : Нет
Forced : Нет

Аудио #3
Идентификатор : 4
Формат : AC-3
Формат/Информация : Audio Coding 3
Расширение режима : CM (complete main)
Параметр Endianness формата : Big
Идентификатор кодека : A_AC3
Продолжительность : 1 ч. 34 м.
Вид битрейта : Постоянный
Битрейт : 640 Кбит/сек
Каналы : 6 каналов
Расположение каналов : Front: L C R, Side: L R, LFE
Частота : 48,0 КГц
Метод сжатия : С потерями
Размер потока : 430 Мбайт (8%)
Заголовок : АС3 5.1 @ 640 kbps - Original
Язык : English
Default : Нет
Forced : Нет

Текст #1
Идентификатор : 5
Формат : UTF-8
Идентификатор кодека : S_TEXT/UTF8
Идентификатор кодека/Информация : UTF-8 Plain Text
Заголовок : Full, BD
Язык : Russian
Default : Нет
Forced : Нет

Текст #2
Идентификатор : 6
Формат : UTF-8
Идентификатор кодека : S_TEXT/UTF8
Идентификатор кодека/Информация : UTF-8 Plain Text
Заголовок : Full, iTunes
Язык : Russian
Default : Нет
Forced : Нет

Текст #3
Идентификатор : 7
Формат : UTF-8
Идентификатор кодека : S_TEXT/UTF8
Идентификатор кодека/Информация : UTF-8 Plain Text
Заголовок : Full
Язык : Ukrainian
Default : Нет
Forced : Нет

Текст #4
Идентификатор : 8
Формат : UTF-8
Идентификатор кодека : S_TEXT/UTF8
Идентификатор кодека/Информация : UTF-8 Plain Text
Заголовок : Full, iTunes
Язык : English
Default : Нет
Forced : Нет

Текст #5
Идентификатор : 9
Формат : UTF-8
Идентификатор кодека : S_TEXT/UTF8
Идентификатор кодека/Информация : UTF-8 Plain Text
Заголовок : Full, BD
Язык : English
Default : Нет
Forced : Нет

Текст #6
Идентификатор : 10
Формат : UTF-8
Идентификатор кодека : S_TEXT/UTF8
Идентификатор кодека/Информация : UTF-8 Plain Text
Заголовок : Full
Язык : English
Default : Нет
Forced : Нет

Текст #7
Идентификатор : 11
Формат : UTF-8
Идентификатор кодека : S_TEXT/UTF8
Идентификатор кодека/Информация : UTF-8 Plain Text
Заголовок : SDH
Язык : English
Default : Нет
Forced : Нет

Текст #8
Идентификатор : 12
Формат : UTF-8
Идентификатор кодека : S_TEXT/UTF8
Идентификатор кодека/Информация : UTF-8 Plain Text
Заголовок : SDH Colored
Язык : English
Default : Нет
Forced : Нет

Меню
00:00:00.000 : :Chapter 01
00:04:22.345 : :Chapter 02
00:14:20.526 : :Chapter 03
00:20:36.818 : :Chapter 04
00:25:51.216 : :Chapter 05
00:32:21.439 : :Chapter 06
00:36:46.203 : :Chapter 07
00:39:57.061 : :Chapter 08
00:47:54.955 : :Chapter 09
00:53:27.162 : :Chapter 10
00:59:12.507 : :Chapter 11
01:06:07.964 : :Chapter 12
01:12:24.673 : :Chapter 13
01:19:40.692 : :Chapter 14
01:23:42.851 : :Chapter 15
01:27:24.072 : :Chapter 16

"x264 log"

x264 [info]: frame I:1728 Avg QP:14.51 size:163018
x264 [info]: frame P:33320 Avg QP:16.27 size: 64328
x264 [info]: frame B:100187 Avg QP:18.42 size: 22217

x264 [info]: consecutive B-frames: 2.9% 4.8% 6.3% 48.8% 11.3% 18.8% 4.2% 2.6% 0.4%

x264 [info]: ref P L0: 47.9% 9.4% 18.7% 6.3% 5.8% 3.8% 3.7% 2.0% 2.2% 0.2% 0.0%
x264 [info]: ref B L0: 79.9% 10.1% 4.0% 2.2% 1.5% 1.3% 0.7% 0.3%
x264 [info]: ref B L1: 95.3% 4.7%


Ссылки для скачивания:

http//bt.hqclub.net/files/ok.png Торрент: Толстяк против всех / Paul Blart: Mall Cop 2 (2015) BDRip 720p

Лучшая онлайн игра!


Публикация материалов сайта на сторонних ресурсах возможна только в неизменном виде.


Обсудить релиз на форуме

Вас также может заинтересовать:


  • 5
 (Голосов: 4)


Распечатать новость на принтере Комедия, Боевик