Вас Приветствует Релиз-группа HQCLUB


Помощь ресурсу, очень ВАЖНО!!!



.


WELCOME
Добро пожаловать в наше интернет - сообщество!

Всех нас объединяет одна страсть - страсть к высококачественному кино. А это наш сайт. Ежедневно здесь мы публикуем десятки качественных, свежих, а порой и эксклюзивных релизов, которые Вы можете скачать совершенно бесплатно и без каких-либо регистраций. Посему рекомендуем Вам добавить HQClub себе в закладки, а также подписаться на нашу ленту новостей, чтобы всегда быть в курсе всех событий. Ну а если Вы такой же синий фил, как и мы, то милости просим на наш форум. И в заключение, попробуйте зарегистрироваться, ведь не так это и сложно и займет всего лишь пару минут! Вот увидите, Вам у нас понравится и Вы вольетесь в наш дружный коллектив! Ну а пока - осматривайтесь = )
Мы рады Вам !





Высокий блондин в черном ботинке / Follow That Guy with the One Black Shoe / Le grand blond avec une chaussure noire (1972) BDRip-AVC

Оформил: Elheym | 13 июля 2014 - 19:34:03 | Комментариев: 1 | Обращений: 698 {bookmarks_news}

http//lostpic.net/orig_images/0/6/f/06f5ecd4e56cf3af2c217179984ba06b.png

Информация о фильме:
Название: Высокий блондин в черном ботинке
Оригинальное название: Le grand blond avec une chaussure noire
Год выхода: 1972
Жанр: комедия, детектив
Режиссер: Ив Робер
В ролях: Пьер Ришар, Бернар Блие, Жан Рошфор, Мирей Дарк, Колетт Кастель, Жан Об, Робер Кастель, Жан Содрэ, Роже Качча, Морис Барье

О фильме: Рассеянного скрипача-виртуоза Франсуа Перрена принимают за секретного суперагента. Высокий блондин оказывается крепким орешком. Он с легкостью избегает всех опасностей, даже не подозревая о них.

http//rating.kinopoisk.ru/70934.gif http//tracker.0day.kiev.ua/imdb/imdb_tt0068655.gif

Релиз от - http//hqclub.net/images/hqclub.png
Автор рипа: Elheym

Выпущено: Франция
Продолжительность: 01:29:32
Перевод: Профессиональный (двухголосый, закадровый), Союз-Видео + Профессиональный (полное дублирование), СССР [со вставками**] + Оригинал (французский)
Субтитры: английские (полные)
Главы: присутствуют, сохранены оригинальные

Цитата:
** - Основной перевод - Русский Дубляж (времен СССР). На места, где не было перевода в дубляже, наложены друхголосые вставки.


Дополнительные аудиодорожки:
+ Профессиональный (многоголосый, закадровый) (украинский) (К1)
+ Профессиональный (двухголосый, закадровый) (украинский) (2+2)

Файл:
Формат: MKV
Качество: BDRip-AVC (источник: http//i28.fastpic.ru/big/2011/1013/a8/a3d28e80c9544f4c572189fc892ea8.gif / Blu-Ray Remux / 1080p)
Видео: 1024x618 (1,657:1), 24 fps, MPEG-4 AVC, ~2892 kbps avg, 0.190 bit/pixel
Аудио #1: 48 kHz, AC3 Dolby Digital, 2/0 (L,R) + LFE ch, ~192 kbps (DVO.INIS)
Аудио #2: 48 kHz, AC3 Dolby Digital, 2/0 (L,R) + LFE ch, ~192 kbps (DUB)
Аудио #3: 48 kHz, AC3 Dolby Digital, 2/0 (L,R) + LFE ch, ~192 kbps (FRE)
Аудио #4: 48 kHz, AC3 Dolby Digital, 2/0 (L,R) + LFE ch, ~192 kbps (UKR.К1) (отдельно)
Аудио #5: 48 kHz, AC3 Dolby Digital, 2/0 (L,R) + LFE ch, ~192 kbps (UKR.2+2) (отдельно)
Размер: 2.16 GB
Сэмпл: скачать

http//lostpic.net/thumbs_images/4/a/0/4a0d2bacd32ed4d804130188b87ca79e.png http//lostpic.net/thumbs_images/2/9/c/29c403a3188e0832b344cfc3c7b55d.png http//lostpic.net/thumbs_images/f/2/2/f225a38469ce8d7bf3f37c330fab5094.png http//lostpic.net/thumbs_images/3/b/a/3bade225ce44bb0be0e6c2ac1751b9.png http//lostpic.net/thumbs_images/d/5/6/d56c882476932ae1ad77f1416c8ce45c.png http//lostpic.net/thumbs_images/a/c/9/ac935b7d1104bf56cdecf2e6f72eb8a6.png

"MediaInfo"

Уникальный идентификатор : 202812397572613849605730024981521488377 (0x98943F38A076E83FA6671D5A61B3D9F9)
Полное имя : Follow.That.Guy.with.the.One.Black.Shoe.1972.TRIPLE.BDRip-AVC.x264.AC3.-HQCLUB.mkv
Формат : Matroska
Версия формата : Version 2
Размер файла : 2,17 Гбайт
Продолжительность : 1 ч. 29 м.
Общий поток : 3470 Кбит/сек
Дата кодирования : UTC 2014-07-13 14:56:48
Программа кодирования : mkvmerge v5.2.0 ('I can't explain') built on Dec 18 2011 18:12:03
Библиотека кодирования : libebml v1.2.3 + libmatroska v1.3.0

Видео
Идентификатор : 1
Формат : AVC
Формат/Информация : Advanced Video Codec
Профиль формата : High@L4.1
Параметр CABAC формата : Да
Параметр ReFrames формата : 13 кадров
Идентификатор кодека : V_MPEG4/ISO/AVC
Продолжительность : 1 ч. 29 м.
Битрейт : 2892 Кбит/сек
Ширина : 1024 пикселя
Высота : 618 пикселей
Соотношение сторон : 1,657
Режим частоты кадров : Постоянный
Частота кадров : 24,000 кадра/сек
Цветовое пространство : YUV
Субдискретизация насыщенности : 4:2:0
Битовая глубина : 8 бит
Тип развёртки : Прогрессивная
Бит/(Пиксели*Кадры) : 0.190
Размер потока : 1,77 Гбайт (81%)
Заголовок : Высокий блондин в черном ботинке / Follow That Guy with the One Black Shoe / Le grand blond avec une chaussure noire (1972) BDRip-AVC by HQCLUB [Elheym]
Библиотека кодирования : x264 core 142 r2431 ac76440
Настройки программы : cabac=1 / ref=13 / deblock=1:-3:-2 / analyse=0x3:0x113 / me=umh / subme=11 / psy=1 / psy_rd=1.00:0.00 / mixed_ref=1 / me_range=32 / chroma_me=1 / trellis=2 / 8x8dct=1 / cqm=0 / deadzone=21,11 / fast_pskip=1 / chroma_qp_offset=-4 / threads=6 / lookahead_threads=1 / sliced_threads=0 / nr=0 / decimate=1 / interlaced=0 / bluray_compat=0 / constrained_intra=0 / bframes=13 / b_pyramid=2 / b_adapt=2 / b_bias=0 / direct=3 / weightb=1 / open_gop=0 / weightp=2 / keyint=240 / keyint_min=24 / scenecut=40 / intra_refresh=0 / rc_lookahead=40 / rc=2pass / mbtree=1 / bitrate=2892 / ratetol=1.0 / qcomp=0.60 / qpmin=10 / qpmax=69 / qpstep=4 / cplxblur=20.0 / qblur=0.5 / vbv_maxrate=50000 / vbv_bufsize=62500 / nal_hrd=none / filler=0 / ip_ratio=1.40 / aq=1:0.90
Язык : French
Default : Да
Forced : Нет

Аудио #1
Идентификатор : 2
Формат : AC-3
Формат/Информация : Audio Coding 3
Расширение режима : CM (complete main)
Параметр Endianness формата : Big
Идентификатор кодека : A_AC3
Продолжительность : 1 ч. 29 м.
Вид битрейта : Постоянный
Битрейт : 192 Кбит/сек
Каналы : 2 канала
Расположение каналов : Front: L R
Частота : 48,0 КГц
Битовая глубина : 16 бит
Метод сжатия : С потерями
Размер потока : 123 Мбайт (6%)
Заголовок : АС3 2.0 @ ~192 kbps - DVO Inis
Язык : Russian
Default : Нет
Forced : Нет

Аудио #2
Идентификатор : 3
Формат : AC-3
Формат/Информация : Audio Coding 3
Расширение режима : CM (complete main)
Параметр Endianness формата : Big
Идентификатор кодека : A_AC3
Продолжительность : 1 ч. 29 м.
Вид битрейта : Постоянный
Битрейт : 192 Кбит/сек
Каналы : 2 канала
Расположение каналов : Front: L R
Частота : 48,0 КГц
Битовая глубина : 16 бит
Метод сжатия : С потерями
Размер потока : 123 Мбайт (6%)
Заголовок : АС3 2.0 @ ~192 kbps - Dub USSR
Язык : Russian
Default : Нет
Forced : Нет

Аудио #3
Идентификатор : 4
Формат : AC-3
Формат/Информация : Audio Coding 3
Расширение режима : CM (complete main)
Параметр Endianness формата : Big
Идентификатор кодека : A_AC3
Продолжительность : 1 ч. 29 м.
Вид битрейта : Постоянный
Битрейт : 192 Кбит/сек
Каналы : 2 канала
Расположение каналов : Front: L R
Частота : 48,0 КГц
Битовая глубина : 16 бит
Метод сжатия : С потерями
Размер потока : 123 Мбайт (6%)
Заголовок : АС3 2.0 @ ~192 kbps - Original
Язык : French
Default : Нет
Forced : Нет

Текст
Идентификатор : 5
Формат : UTF-8
Идентификатор кодека : S_TEXT/UTF8
Идентификатор кодека/Информация : UTF-8 Plain Text
Заголовок : Full
Язык : English
Default : Нет
Forced : Нет

Меню
00:00:00.000 : :Chapter 01
00:07:22.082 : :Chapter 02
00:15:14.916 : :Chapter 03
00:23:29.333 : :Chapter 04
00:31:04.875 : :Chapter 05
00:38:40.791 : :Chapter 06
00:46:13.416 : :Chapter 07
00:54:13.457 : :Chapter 08
01:01:27.333 : :Chapter 09
01:07:56.083 : :Chapter 10
01:15:23.291 : :Chapter 11
01:22:48.291 : :Chapter 12
01:29:32.291 : :Chapter 13

"x264 log"

x264 [info]: frame I:874 Avg QP:16.81 size: 88393
x264 [info]: frame P:25695 Avg QP:19.70 size: 32627
x264 [info]: frame B:102372 Avg QP:22.27 size: 10025

x264 [info]: consecutive B-frames: 1.6% 2.3% 6.8% 12.9% 13.0% 46.3% 6.5% 1.5% 3.7% 0.6% 1.9% 1.7% 0.7% 0.5%

x264 [info]: ref P L0: 38.8% 10.5% 17.7% 6.9% 6.2% 4.4% 4.3% 2.2% 2.2% 1.7% 1.8% 1.4% 1.6% 0.2% 0.0%
x264 [info]: ref B L0: 66.9% 12.7% 6.5% 3.5% 2.6% 2.3% 1.8% 1.1% 0.9% 0.9% 0.5% 0.3%
x264 [info]: ref B L1: 91.9% 8.1%


Ссылки для скачивания:

http//bt.hqclub.net/files/ok.png Торрент: Высокий блондин в черном ботинке / Follow That Guy with the One Black Shoe / Le grand blond avec une chaussure noire (1972) BDRip-AVC

Лучшая онлайн игра!


Публикация материалов сайта на сторонних ресурсах возможна только в неизменном виде.


Обсудить релиз на форуме

Вас также может заинтересовать:


  • 5
 (Голосов: 3)


Распечатать новость на принтере Комедия, Детектив
Обновлено: 13.07.2014 - 21:08

КОММЕНТАРИИ

 №1. ru4lan

Статус: Кинокритик | Новостей: 0 | Комментариев: 2736
ru4lan спасибО!
~~~

17.07.2014 - 12:06   цитировать