Вас Приветствует Релиз-группа HQCLUB


Помощь ресурсу, очень ВАЖНО!!!



.


WELCOME
Добро пожаловать в наше интернет - сообщество!

Всех нас объединяет одна страсть - страсть к высококачественному кино. А это наш сайт. Ежедневно здесь мы публикуем десятки качественных, свежих, а порой и эксклюзивных релизов, которые Вы можете скачать совершенно бесплатно и без каких-либо регистраций. Посему рекомендуем Вам добавить HQClub себе в закладки, а также подписаться на нашу ленту новостей, чтобы всегда быть в курсе всех событий. Ну а если Вы такой же синий фил, как и мы, то милости просим на наш форум. И в заключение, попробуйте зарегистрироваться, ведь не так это и сложно и займет всего лишь пару минут! Вот увидите, Вам у нас понравится и Вы вольетесь в наш дружный коллектив! Ну а пока - осматривайтесь = )
Мы рады Вам !





Пережить Рождество / Surviving Christmas (2004) BDRip-AVC

Оформил: Gellard | 18 июня 2014 - 17:30:21 | Комментариев: 1 | Обращений: 761 {bookmarks_news}

http//lostpic.net/orig_images/d/e/c/decb8085336bd5ea7bf63c7ecba5bf78.jpg

Информация о фильме:
Название: Пережить Рождество
Оригинальное название: Surviving Christmas
Год выхода: 2004
Жанр: комедия, мелодрама
Режиссер: Майк Митчелл
В ролях: Бен Аффлек, Джеймс Гандольфини, Кристина Эпплгейт, Кэтрин О’Хара, Джош Цуккерман, Билл Мэйси, Дженнифер Моррисон, Удо Кир, Дэвид Селби, Стефани Фэраси

О фильме: Опостылевшая рутинная жизнь богача Дрю Лэтама приводит его на Рождество в пригородный дом своего детства. И даже тот факт, что дом заселён теперь другими людьми, не может испортить Дрю настроение. За солидное вознаграждение он предлагает семейке Валко на время стать его роднёй, и сам мечтает отметить праздник в их кругу. Вот только деньги кружат голову далеко не всем его новым родственникам, да и сами Валко, кажется, представляют собой редкую семейку психопатов...

«Поделись теплом»



http//rating.kinopoisk.ru/20105.gif http//bluebird-hd.org/imdb/imdb_tt0252028.gif

Релиз от - http//hqclub.net/images/hqclub.png
Автор рипа: Elheym

Выпущено: США
Продолжительность: 01:30:43
Перевод: профессиональный (полное дублирование), R5 + оригинал (английский)
Субтитры: русские (полные), украинские (полные), английские (полные)
Главы: присутствуют, сохранены оригинальные (подписаны)

Дополнительные аудиодорожки:
+ Профессиональный (многоголосый, закадровый) Tycoon
+ Авторский (одноголосый, закадровый) С. Визгунов
+ Авторский (одноголосый, закадровый) Ю. Немахов
+ Профессиональный (двухголосый, закадровый) украинский |Новий канал|

Файл:
Формат: MKV
Качество: BDRip-AVC (источник: rutracker / BDRemux / 1080p)
Видео: 1024x578 (1.77:1), 23.976 fps, MPEG-4 AVC, ~2930 kbps avg, 0.206 bit/pixel
Аудио #1: 48 kHz, AC3 Dolby Digital, 3/2 (L,C,R,l,r) + LFE ch, ~384 kbps avg (DUB.R5)
Аудио #2: 48 kHz, AC3 Dolby Digital, 3/2 (L,C,R,l,r) + LFE ch, ~384 kbps avg (MVO.TYCOON) (отдельно)
Аудио #3: 48 kHz, AC3 Dolby Digital, 3/2 (L,C,R,l,r) + LFE ch, ~384 kbps avg (AVO.VIZGUNOV) (отдельно)
Аудио #4: 48 kHz, AC3 Dolby Digital, 3/2 (L,C,R,l,r) + LFE ch, ~384 kbps avg (AVO.NEMAHOV) (отдельно)
Аудио #5: 48 kHz, AC3 Dolby Digital, 3/2 (L,C,R,l,r) + LFE ch, ~384 kbps avg (DVO.UKR.NOVYJ.KANAL) (отдельно)
Аудио #6: 48 kHz, AC3 Dolby Digital, 3/2 (L,C,R,l,r) + LFE ch, ~384 kbps avg (ENG)
Размер: 2.34 GB
Сэмпл: скачать

http//lostpic.net/thumbs_images/0/5/f/05f741a86c6c641f238a8fa8d173b7.png http//lostpic.net/thumbs_images/9/b/f/9bfeca626dfd10c59f929224af51218c.png http//lostpic.net/thumbs_images/c/7/a/c7a811a8ea50a264107b29fc85db6672.png http//lostpic.net/thumbs_images/e/2/b/e2b036920e2b190397fc0e89464adcdb.png http//lostpic.net/thumbs_images/e/8/c/e8c2e54f47a60a9a29637fcb5163e3fd.png http//lostpic.net/thumbs_images/c/b/f/cbfb13a5b4cbf661fd56c1223951c4f9.png

"MediaInfo"
Уникальный идентификатор : 211572734077828634237266639513323225296 (0x9F2B6D2865411F5BAF67D8A6D68AC0D0)
Полное имя : Surviving.Christmas.2004.DUAL.BDRip-AVC.x264.AC3.-HQCLUB.mkv
Формат : Matroska
Версия формата : Version 2
Размер файла : 2,34 Гбайт
Продолжительность : 1 ч. 30 м.
Общий поток : 3698 Кбит/сек
Дата кодирования : UTC 2014-06-18 11:52:05
Программа кодирования : mkvmerge v5.2.0 ('I can't explain') built on Dec 18 2011 18:12:03
Библиотека кодирования : libebml v1.2.3 + libmatroska v1.3.0

Видео
Идентификатор : 1
Формат : AVC
Формат/Информация : Advanced Video Codec
Профиль формата : High@L4.1
Параметр CABAC формата : Да
Параметр ReFrames формата : 4 кадра
Идентификатор кодека : V_MPEG4/ISO/AVC
Продолжительность : 1 ч. 30 м.
Битрейт : 2930 Кбит/сек
Ширина : 1024 пикселя
Высота : 578 пикселей
Соотношение сторон : 16:9
Режим частоты кадров : Постоянный
Частота кадров : 23,976 кадра/сек
Цветовое пространство : YUV
Субдискретизация насыщенности : 4:2:0
Битовая глубина : 8 бит
Тип развёртки : Прогрессивная
Бит/(Пиксели*Кадры) : 0.206
Размер потока : 1,81 Гбайт (77%)
Заголовок : Пережить Рождество / Surviving Christmas (2004) BDRip-AVC by HQCLUB [Elheym]
Библиотека кодирования : x264 core 142 r2431 ac76440
Настройки программы : cabac=1 / ref=5 / deblock=1:-3:-2 / analyse=0x3:0x113 / me=tesa / subme=11 / psy=1 / psy_rd=1.00:0.00 / mixed_ref=1 / me_range=32 / chroma_me=1 / trellis=2 / 8x8dct=1 / cqm=0 / deadzone=21,11 / fast_pskip=1 / chroma_qp_offset=-4 / threads=6 / lookahead_threads=1 / sliced_threads=0 / nr=0 / decimate=1 / interlaced=0 / bluray_compat=0 / constrained_intra=0 / bframes=12 / b_pyramid=1 / b_adapt=2 / b_bias=0 / direct=3 / weightb=1 / open_gop=0 / weightp=2 / keyint=240 / keyint_min=23 / scenecut=40 / intra_refresh=0 / rc_lookahead=40 / rc=2pass / mbtree=1 / bitrate=2930 / ratetol=1.0 / qcomp=0.60 / qpmin=10 / qpmax=69 / qpstep=4 / cplxblur=20.0 / qblur=0.5 / vbv_maxrate=50000 / vbv_bufsize=62500 / nal_hrd=none / filler=0 / ip_ratio=1.40 / aq=1:1.00
Язык : English
Default : Да
Forced : Нет

Аудио #1
Идентификатор : 2
Формат : AC-3
Формат/Информация : Audio Coding 3
Расширение режима : CM (complete main)
Параметр Endianness формата : Big
Идентификатор кодека : A_AC3
Продолжительность : 1 ч. 30 м.
Вид битрейта : Постоянный
Битрейт : 384 Кбит/сек
Каналы : 6 каналов
Расположение каналов : Front: L C R, Side: L R, LFE
Частота : 48,0 КГц
Битовая глубина : 16 бит
Метод сжатия : С потерями
Размер потока : 249 Мбайт (10%)
Заголовок : АС3 5.1 @ 384 kbps - Dub
Язык : Russian
Default : Нет
Forced : Нет

Аудио #2
Идентификатор : 3
Формат : AC-3
Формат/Информация : Audio Coding 3
Расширение режима : CM (complete main)
Параметр Endianness формата : Big
Идентификатор кодека : A_AC3
Продолжительность : 1 ч. 30 м.
Вид битрейта : Постоянный
Битрейт : 384 Кбит/сек
Каналы : 6 каналов
Расположение каналов : Front: L C R, Side: L R, LFE
Частота : 48,0 КГц
Битовая глубина : 16 бит
Метод сжатия : С потерями
Размер потока : 249 Мбайт (10%)
Заголовок : АС3 5.1 @ 384 kbps - Original
Язык : English
Default : Нет
Forced : Нет

Текст #1
Идентификатор : 4
Формат : UTF-8
Идентификатор кодека : S_TEXT/UTF8
Идентификатор кодека/Информация : UTF-8 Plain Text
Заголовок : Full, R5
Язык : Russian
Default : Нет
Forced : Нет

Текст #2
Идентификатор : 5
Формат : UTF-8
Идентификатор кодека : S_TEXT/UTF8
Идентификатор кодека/Информация : UTF-8 Plain Text
Заголовок : Full, urij546724 [Hurtom]
Язык : Ukrainian
Default : Нет
Forced : Нет

Текст #3
Идентификатор : 6
Формат : UTF-8
Идентификатор кодека : S_TEXT/UTF8
Идентификатор кодека/Информация : UTF-8 Plain Text
Заголовок : Full SDH
Язык : English
Default : Нет
Forced : Нет

Меню
00:00:00.000 : en:Chapter 01. Christmas in the City
00:02:39.576 : en:Chapter 02. A Lonely Christmas
00:08:43.356 : en:Chapter 03. Drew's Grievances
00:13:43.113 : en:Chapter 04. My Childhood Home
00:17:23.292 : en:Chapter 05. The Christmas Contract
00:19:53.817 : en:Chapter 06. Make Yourself at Home
00:23:01.213 : en:Chapter 07. Tree Shopping
00:27:38.156 : en:Chapter 08. Good Times in the Snow
00:29:22.510 : en:Chapter 09. Role-Playing
00:34:19.807 : en:Chapter 10. A Great Day for Shopping
00:36:40.907 : en:Chapter 11. Problems in the Family
00:43:41.618 : en:Chapter 12. Risking Permanent Paralysis
00:47:03.654 : en:Chapter 13. Tender Moments
00:50:31.445 : en:Chapter 14. Yuletide Glee
00:52:46.580 : en:Chapter 15. The Ice Palace
00:56:19.834 : en:Chapter 16. Girl Trouble
01:00:04.726 : en:Chapter 17. Getting Acquainted
01:05:16.871 : en:Chapter 18. Sis Is Home!
01:08:14.840 : en:Chapter 19. Incestuous Overtones
01:11:51.265 : en:Chapter 20. Drew Comes Clean
01:15:45.123 : en:Chapter 21. An Unexpected Visitor
01:18:35.252 : en:Chapter 22. Everybody Get Together
01:21:40.061 : en:Chapter 23. A True Holiday Ending
01:25:06.309 : en:Chapter 24. Credits
01:30:42.687 : en:Chapter 25.

"x264 log"
x264 [info]: frame I:997 Avg QP:15.70 size: 89322
x264 [info]: frame P:25195 Avg QP:18.20 size: 32976
x264 [info]: frame B:104308 Avg QP:20.75 size: 10282

x264 [info]: consecutive B-frames: 1.5% 1.8% 4.4% 13.1% 18.7% 38.6% 9.8% 5.8% 2.6% 1.4% 0.9% 0.9% 0.4%

x264 [info]: ref P L0: 57.7% 11.1% 20.0% 10.6% 0.6% 0.0%
x264 [info]: ref B L0: 80.9% 14.3% 4.9%
x264 [info]: ref B L1: 91.2% 8.8%


http//bt.hqclub.net/files/ok.png Торрент: Пережить Рождество / Surviving Christmas (2004) BDRip-AVC

Лучшая онлайн игра!


Публикация материалов сайта на сторонних ресурсах возможна только в неизменном виде.


Обсудить релиз на форуме

Вас также может заинтересовать:


  • 5
 (Голосов: 4)


Распечатать новость на принтере Комедия, Мелодрама

КОММЕНТАРИИ

 №1. ru4lan

Статус: Кинокритик | Новостей: 0 | Комментариев: 2736
ru4lan очень хороший фильм, особенно под рождество.
~~~

23.06.2014 - 19:25   цитировать