Вас Приветствует Релиз-группа HQCLUB


Помощь ресурсу, очень ВАЖНО!!!



.


WELCOME
Добро пожаловать в наше интернет - сообщество!

Всех нас объединяет одна страсть - страсть к высококачественному кино. А это наш сайт. Ежедневно здесь мы публикуем десятки качественных, свежих, а порой и эксклюзивных релизов, которые Вы можете скачать совершенно бесплатно и без каких-либо регистраций. Посему рекомендуем Вам добавить HQClub себе в закладки, а также подписаться на нашу ленту новостей, чтобы всегда быть в курсе всех событий. Ну а если Вы такой же синий фил, как и мы, то милости просим на наш форум. И в заключение, попробуйте зарегистрироваться, ведь не так это и сложно и займет всего лишь пару минут! Вот увидите, Вам у нас понравится и Вы вольетесь в наш дружный коллектив! Ну а пока - осматривайтесь = )
Мы рады Вам !





Афоня (1975) BDRip-AVC

Оформил: Sky™ | 6 апреля 2014 - 10:43:34 | Комментариев: 2 | Обращений: 1390 {bookmarks_news}

http//lostpic.net/orig_images/2/e/5/2e589a9d92a5a23d7f1f0b2cf4d59f.png

Информация о фильме
Оригинальное название: Афоня
Год выхода: 1975
Жанр: Комедия
Режиссер: Георгий Данелия
В ролях: Леонид Куравлёв, Евгения Симонова, Евгений Леонов, Борислав Брондуков, Валентина Талызина, Владимир Басов, Николай Парфёнов, Готлиб Ронинсон, Нина Русланова, Раиса Куркина, Нина Маслова, Алексей Ванин, Савелий Крамаров, Николай Гринько, Николай Граббе, Тамара Совчи, Раднэр Муратов, Татьяна Распутина...
О фильме: Весело и беззаботно жил слесарь-сантехник Афанасий. Не гнушался левыми заработками, любил выпить, поволочиться за девушками. Так проходил день за днем, но однажды… О том, что случилось с Афоней, рассказывает фильм признанного мастера комедии Георгия Данелии.

User Rating: 7.976/10 (19558 votes)

Релиз от - http//hqclub.net/images/hqclub.png
Автор рипа: Sky™

Выпущено: СССР / Мосфильм
Продолжительность: 01:31:57
Субтитры: нет

Файл:
Формат: mkv
Качество: BDRip-AVC (источник: http//lostpic.net/images/a9cf10b471cacb4ee84f235ce91886dd.png / Blu-ray / 1080p)
Видео: 794x576 (1.378:1), 23.976 fps, X264@L4.1 ~2946 kbps avg, 0.269 bit/pixel
Аудио: 48 kHz, AC3 Dolby Digital, 3/2 (L,C,R,l,r) + LFE ch, ~448 kbps avg (RUS)
Размер: 2233.60 Mb
http//lostpic.net/images/1b899dddff9c84e7020a856612f5c646.png

http//lostpic.net/thumbs_images/2/d/2/2d2bc1301bc5356feeae3e8b6ab4ce.png http//lostpic.net/thumbs_images/2/e/a/2eae0df29c7c1ec0c7ffabe05a5198.png http//lostpic.net/thumbs_images/0/3/7/037006292a6254a43fbebaf1552ee2.png http//lostpic.net/thumbs_images/1/5/3/1532c5cff33868c0d0f8eb3ec84f7229.png http//lostpic.net/thumbs_images/8/5/b/85b4a83ab7210e2de26dd9c920993b2b.png http//lostpic.net/thumbs_images/0/e/f/0efa7352a74b67859e268f0a093346e4.png http//lostpic.net/thumbs_images/5/e/f/5efc14fcc2b074faa7ab2a56d9cce1.png http//lostpic.net/thumbs_images/a/e/d/aedc3c9f012c2a024bae6c9b265e240d.png http//lostpic.net/thumbs_images/2/e/a/2ea5a35b47871896335afe625b08f162.png http//lostpic.net/thumbs_images/f/0/8/f08a3d685ef768eac44b2bd86e06068f.png http//lostpic.net/thumbs_images/7/0/a/70aae023e2b5b907d5300186f9df05f7.png http//lostpic.net/thumbs_images/6/9/2/692872e3cea93da4e2bec8eddd43.png http//lostpic.net/thumbs_images/7/6/7/7671cf93286e718af2fe5ac22bf08340.png

MediaINFO
[HTML]Полное имя : Afonya.1975.BDRip-AVC.H264.AC3.-HQCLUB.mkv
Формат : Matroska
Версия формата : Version 4 / Version 2
Размер файла : 2,18 Гбайт
Продолжительность : 1 ч. 31 м.
Общий поток : 3396 Кбит/сек
Дата кодирования : UTC 2014-03-29 04:07:14
Программа кодирования : mkvmerge v6.5.0 ('Isn't she lovely') built on Oct 20 2013 12:50:05
Библиотека кодирования : libebml v1.3.0 + libmatroska v1.4.1

Видео
Идентификатор : 1
Формат : AVC
Формат/Информация : Advanced Video Codec
Профиль формата : High@L4.1
Параметр CABAC формата : Да
Параметр ReFrames формата : 4 кадра
Идентификатор кодека : V_MPEG4/ISO/AVC
Продолжительность : 1 ч. 31 м.
Битрейт : 2946 Кбит/сек
Ширина : 794 пикселя
Высота : 576 пикселей
Соотношение сторон : 1,378
Частота кадров : 23,976 кадра/сек
Цветовое пространство : YUV
Субдискретизация насыщенности : 4:2:0
Битовая глубина : 8 бит
Тип развёртки : Прогрессивная
Бит/(Пиксели*Кадры) : 0.269
Размер потока : 1,85 Гбайт (85%)
Заголовок : Афоня (1975) BDRip-AVC | HQCLUB
Библиотека кодирования : x264 core 138 r2358 9e941d1
Настройки программы : cabac=1 / ref=4 / deblock=1:-3:-2 / analyse=0x3:0x113 / me=umh / subme=11 / psy=1 / psy_rd=1.00:0.02 / mixed_ref=1 / me_range=48 / chroma_me=1 / trellis=2 / 8x8dct=1 / cqm=0 / deadzone=21,11 / fast_pskip=1 / chroma_qp_offset=-5 / threads=12 / lookahead_threads=2 / sliced_threads=0 / nr=0 / decimate=1 / interlaced=0 / bluray_compat=0 / constrained_intra=0 / bframes=8 / b_pyramid=2 / b_adapt=2 / b_bias=0 / direct=1 / weightb=1 / open_gop=0 / weightp=2 / keyint=240 / keyint_min=24 / scenecut=40 / intra_refresh=0 / rc_lookahead=40 / rc=2pass / mbtree=0 / bitrate=2946 / ratetol=1.0 / qcomp=0.60 / qpmin=0 / qpmax=69 / qpstep=4 / cplxblur=20.0 / qblur=0.5 / vbv_maxrate=62500 / vbv_bufsize=50000 / nal_hrd=none / ip_ratio=1.40 / pb_ratio=1.30 / aq=1:0.70
Язык : Russian
Default : Да
Forced : Нет

Аудио
Идентификатор : 2
Формат : AC-3
Формат/Информация : Audio Coding 3
Расширение режима : CM (complete main)
Идентификатор кодека : A_AC3
Продолжительность : 1 ч. 31 м.
Вид битрейта : Постоянный
Битрейт : 448 Кбит/сек
Каналы : 6 каналов
Расположение каналов : Front: L C R, Side: L R, LFE
Частота : 48,0 КГц
Битовая глубина : 16 бит
Метод сжатия : С потерями
Размер потока : 295 Мбайт (13%)
Заголовок : Оригинальная звуковая дорожка
Язык : Russian
Default : Да
Forced : Нет

Меню
00:00:00.000 : en:00:00:00.000
00:04:52.750 : en:00:04:52.750
00:07:55.433 : en:00:07:55.433
00:12:12.440 : en:00:12:12.440
00:19:04.101 : en:00:19:04.101
00:23:47.884 : en:00:23:47.884
00:29:47.702 : en:00:29:47.702
00:39:46.384 : en:00:39:46.384
00:45:56.044 : en:00:45:56.044
00:59:19.639 : en:00:59:19.639
01:01:56.921 : en:01:01:56.921
01:09:24.451 : en:01:09:24.451
01:18:41.508 : en:01:18:41.508
01:23:52.944 : en:01:23:52.944
01:37:55.995 : en:01:37:55.995
01:56:18.304 : en:01:56:18.304
01:59:38.754 : en:01:59:38.754
[/HTML]

x264 log
[HTML]---[Information] [27.03.2014 2:29:04] x264 [info]: frame I:769 Avg QP:17.59 size: 73015
---[Information] [27.03.2014 2:29:04] x264 [info]: frame P:26308 Avg QP:19.35 size: 34894
---[Information] [27.03.2014 2:29:04] x264 [info]: frame B:105203 Avg QP:21.12 size: 9763
---[Information] [27.03.2014 2:29:04] x264 [info]: consecutive B-frames: 1.0% 1.4% 5.7% 15.2% 16.3% 51.9% 6.2% 0.5% 1.9%
---[Information] [27.03.2014 2:29:04] x264 [info]: mb I I16..4: 32.0% 0.0% 68.0%
---[Information] [27.03.2014 2:29:04] x264 [info]: mb P I16..4: 32.2% 0.0% 0.0% P16..4: 61.3% 0.0% 0.0% 0.0% 0.0% skip: 6.6%
---[Information] [27.03.2014 2:29:04] x264 [info]: mb B I16..4: 5.6% 0.0% 0.0% B16..8: 27.7% 0.0% 0.0% direct:24.8% skip:41.9% L0:26.1% L1:36.5% BI:37.4%
---[Information] [27.03.2014 2:29:04] x264 [info]: final ratefactor: 18.75
---[Information] [27.03.2014 2:29:04] x264 [info]: coded y,uvDC,uvAC intra: 77.2% 66.3% 33.6% inter: 23.7% 24.0% 1.5%
---[Information] [27.03.2014 2:29:04] x264 [info]: i16 v,h,dc,p: 27% 15% 43% 15%
---[Information] [27.03.2014 2:29:04] x264 [info]: i4 v,h,dc,ddl,ddr,vr,hd,vl,hu: 22% 18% 14% 8% 8% 8% 8% 8% 8%
---[Information] [27.03.2014 2:29:04] x264 [info]: i8c dc,h,v,p: 55% 18% 23% 4%
---[Information] [27.03.2014 2:29:04] x264 [info]: Weighted P-Frames: Y:11.7% UV:5.2%[/HTML]

Ссылки для скачивания:

http//bt.hqclub.net/files/ok.png Торрент: Афоня (1975) BDRip-AVC

Лучшая онлайн игра!


Публикация материалов сайта на сторонних ресурсах возможна только в неизменном виде.


Обсудить релиз на форуме

Вас также может заинтересовать:


  • 4
 (Голосов: 3)


Распечатать новость на принтере Комедия, Отечественный
Обновлено: 6.04.2014 - 11:33

КОММЕНТАРИИ

 №1. кит

Статус: Кинокритик | Новостей: 0 | Комментариев: 339
кит -Эй, родственник, Афоня мне рубль должен!
-Два.
-Два!
ag
~~~

6.04.2014 - 14:41   цитировать  

 №2. SerB_777

Статус: Кинокритик | Новостей: 0 | Комментариев: 583
SerB_777 Sky™, БОЛЬШОЕ СПАСИБО за труд и выбор!
Это в коллекцию...
~~~

7.04.2014 - 23:45   цитировать