Вас Приветствует Релиз-группа HQCLUB


Помощь ресурсу, очень ВАЖНО!!!



.


WELCOME
Добро пожаловать в наше интернет - сообщество!

Всех нас объединяет одна страсть - страсть к высококачественному кино. А это наш сайт. Ежедневно здесь мы публикуем десятки качественных, свежих, а порой и эксклюзивных релизов, которые Вы можете скачать совершенно бесплатно и без каких-либо регистраций. Посему рекомендуем Вам добавить HQClub себе в закладки, а также подписаться на нашу ленту новостей, чтобы всегда быть в курсе всех событий. Ну а если Вы такой же синий фил, как и мы, то милости просим на наш форум. И в заключение, попробуйте зарегистрироваться, ведь не так это и сложно и займет всего лишь пару минут! Вот увидите, Вам у нас понравится и Вы вольетесь в наш дружный коллектив! Ну а пока - осматривайтесь = )
Мы рады Вам !





Афоня (1975) BDRip 720p

Оформил: Sky™ | 6 апреля 2014 - 10:40:57 | Комментариев: 1 | Обращений: 1197 {bookmarks_news}

http//lostpic.net/orig_images/2/e/5/2e589a9d92a5a23d7f1f0b2cf4d59f.png

Информация о фильме
Оригинальное название: Афоня
Год выхода: 1975
Жанр: Комедия
Режиссер: Георгий Данелия
В ролях: Леонид Куравлёв, Евгения Симонова, Евгений Леонов, Борислав Брондуков, Валентина Талызина, Владимир Басов, Николай Парфёнов, Готлиб Ронинсон, Нина Русланова, Раиса Куркина, Нина Маслова, Алексей Ванин, Савелий Крамаров, Николай Гринько, Николай Граббе, Тамара Совчи, Раднэр Муратов, Татьяна Распутина...
О фильме: Весело и беззаботно жил слесарь-сантехник Афанасий. Не гнушался левыми заработками, любил выпить, поволочиться за девушками. Так проходил день за днем, но однажды… О том, что случилось с Афоней, рассказывает фильм признанного мастера комедии Георгия Данелии.

User Rating: 7.976/10 (19558 votes)

Релиз от - http//hqclub.net/images/hqclub.png
Автор рипа: Sky™

Выпущено: СССР / Мосфильм
Продолжительность: 01:31:57
Субтитры: нет

Файл:
Формат: mkv
Качество: BDRip 720p (источник: http//lostpic.net/images/a9cf10b471cacb4ee84f235ce91886dd.png / Blu-ray / 1080p)
Видео: 994x720 (1.381:1), 23.976 fps, X264@L4.1 ~4355 kbps avg, 0.254 bit/pixel
Аудио: 48 kHz, DTS, 3/2 (L,C,R,l,r) + LFE ch, ~1509 kbps avg (RUS)
Размер: 3935.87 Mb
http//lostpic.net/images/1b899dddff9c84e7020a856612f5c646.png

http//lostpic.net/thumbs_images/c/6/1/c619b2cedd0acd60b6be4b928b8a35.png http//lostpic.net/thumbs_images/0/4/f/04fc7baaf68563c210eb27fa2845d5.png http//lostpic.net/thumbs_images/9/c/1/9c118c51747fae26146ff96f3878e4e7.png http//lostpic.net/thumbs_images/1/0/9/1099cea3322e05429b1947870f0e4e65.png http//lostpic.net/thumbs_images/e/f/e/efeae9e2b00c64ef0081c81c65bdba.png http//lostpic.net/thumbs_images/c/9/4/c94a33df3dc92b92b26332b4f2aaf55c.png http//lostpic.net/thumbs_images/f/9/6/f963d3201fa3a4667c9bf50f8aa80f40.png http//lostpic.net/thumbs_images/9/b/3/9b36f67052406a6d7087586e31630b4a.png http//lostpic.net/thumbs_images/6/7/0/6705e863aa305aeda7400be3cd0b87.png http//lostpic.net/thumbs_images/3/8/c/38c1134be8c33a0d25d20c5d2db2839b.png http//lostpic.net/thumbs_images/c/6/c/c6cda188a4bdfca1184259076bafe4aa.png

MediaINFO
[HTML]Полное имя : Afonya.1975.BDRip.720p.H264.AC3.-HQCLUB.mkv
Формат : Matroska
Версия формата : Version 4 / Version 2
Размер файла : 3,84 Гбайт
Продолжительность : 1 ч. 31 м.
Общий поток : 5984 Кбит/сек
Дата кодирования : UTC 2014-04-04 12:04:57
Программа кодирования : mkvmerge v6.6.0 ('The Edge Of The In Between') built on Dec 1 2013 17:55:00
Библиотека кодирования : libebml v1.3.0 + libmatroska v1.4.1

Видео
Идентификатор : 1
Формат : AVC
Формат/Информация : Advanced Video Codec
Профиль формата : High@L4.1
Параметр CABAC формата : Да
Параметр ReFrames формата : 4 кадра
Идентификатор кодека : V_MPEG4/ISO/AVC
Продолжительность : 1 ч. 31 м.
Битрейт : 4355 Кбит/сек
Ширина : 994 пикселя
Высота : 720 пикселей
Соотношение сторон : 1,381
Частота кадров : 23,976 кадра/сек
Цветовое пространство : YUV
Субдискретизация насыщенности : 4:2:0
Битовая глубина : 8 бит
Тип развёртки : Прогрессивная
Бит/(Пиксели*Кадры) : 0.254
Размер потока : 2,80 Гбайт (73%)
Заголовок : Афоня (1975) BDRip 720p | HQCLUB
Библиотека кодирования : x264 core 138 r2358 9e941d1
Настройки программы : cabac=1 / ref=4 / deblock=1:-3:-2 / analyse=0x3:0x113 / me=umh / subme=11 / psy=1 / psy_rd=1.00:0.02 / mixed_ref=1 / me_range=48 / chroma_me=1 / trellis=2 / 8x8dct=1 / cqm=0 / deadzone=21,11 / fast_pskip=1 / chroma_qp_offset=-5 / threads=12 / lookahead_threads=2 / sliced_threads=0 / nr=0 / decimate=1 / interlaced=0 / bluray_compat=0 / constrained_intra=0 / bframes=8 / b_pyramid=2 / b_adapt=2 / b_bias=0 / direct=1 / weightb=1 / open_gop=0 / weightp=2 / keyint=240 / keyint_min=24 / scenecut=40 / intra_refresh=0 / rc_lookahead=40 / rc=crf / mbtree=0 / crf=18.0 / qcomp=0.60 / qpmin=0 / qpmax=69 / qpstep=4 / vbv_maxrate=62500 / vbv_bufsize=50000 / crf_max=0.0 / nal_hrd=none / ip_ratio=1.40 / pb_ratio=1.30 / aq=1:0.70
Язык : Russian
Default : Да
Forced : Нет

Аудио
Идентификатор : 2
Формат : DTS
Формат/Информация : Digital Theater Systems
Идентификатор кодека : A_DTS
Продолжительность : 1 ч. 31 м.
Вид битрейта : Постоянный
Битрейт : 1510 Кбит/сек
Каналы : 6 каналов
Расположение каналов : Front: L C R, Side: L R, LFE
Частота : 48,0 КГц
Битовая глубина : 24 бит
Метод сжатия : С потерями
Размер потока : 993 Мбайт (25%)
Заголовок : Оригинальная звуковая дорожка
Язык : Russian
Default : Да
Forced : Нет

Меню
00:00:00.000 : en:00:00:00.000
00:07:11.431 : en:00:07:11.431
00:11:12.672 : en:00:11:12.672
00:19:32.171 : en:00:19:32.171
00:24:03.067 : en:00:24:03.067
00:31:43.902 : en:00:31:43.902
00:42:34.552 : en:00:42:34.552
00:51:58.615 : en:00:51:58.615
01:00:26.623 : en:01:00:26.623
01:09:38.174 : en:01:09:38.174
01:15:31.610 : en:01:15:31.610
01:23:30.130 : en:01:23:30.130[/HTML]

x264 log
[HTML]Information] [27.03.2014 11:18:20] x264 [info]: frame I:773 Avg QP:17.00 size: 91991
---[Information] [27.03.2014 11:18:20] x264 [info]: frame P:24821 Avg QP:18.78 size: 49646
---[Information] [27.03.2014 11:18:20] x264 [info]: frame B:106686 Avg QP:21.12 size: 16698
---[Information] [27.03.2014 11:18:20] x264 [info]: consecutive B-frames: 0.8% 0.6% 3.0% 12.4% 16.5% 57.4% 6.8% 0.5% 2.0%
---[Information] [27.03.2014 11:18:20] x264 [info]: mb I I16..4: 3.6% 84.7% 11.8%
---[Information] [27.03.2014 11:18:20] x264 [info]: mb P I16..4: 0.4% 16.0% 0.9% P16..4: 27.6% 37.9% 14.3% 0.0% 0.0% skip: 2.9%
---[Information] [27.03.2014 11:18:20] x264 [info]: mb B I16..4: 0.1% 1.4% 0.1% B16..8: 37.5% 20.5% 3.9% direct: 7.6% skip:28.9% L0:39.4% L1:44.6% BI:16.0%
---[Information] [27.03.2014 11:18:20] x264 [info]: 8x8 transform intra:91.1% inter:59.4%
---[Information] [27.03.2014 11:18:20] x264 [info]: coded y,uvDC,uvAC intra: 94.7% 91.1% 75.6% inter: 34.6% 31.1% 6.1%
---[Information] [27.03.2014 11:18:20] x264 [info]: i16 v,h,dc,p: 34% 30% 4% 32%
---[Information] [27.03.2014 11:18:20] x264 [info]: i8 v,h,dc,ddl,ddr,vr,hd,vl,hu: 9% 8% 11% 10% 14% 13% 12% 11% 12%
---[Information] [27.03.2014 11:18:20] x264 [info]: i4 v,h,dc,ddl,ddr,vr,hd,vl,hu: 8% 25% 3% 7% 12% 12% 12% 9% 12%
---[Information] [27.03.2014 11:18:20] x264 [info]: i8c dc,h,v,p: 44% 23% 20% 13%
---[Information] [27.03.2014 11:18:20] x264 [info]: Weighted P-Frames: Y:14.7% UV:9.4%
---[Information] [27.03.2014 11:18:20] x264 [info]: ref P L0: 48.2% 12.7% 25.2% 11.9% 2.0% 0.0%
---[Information] [27.03.2014 11:18:20] x264 [info]: ref B L0: 89.3% 8.0% 2.7%
---[Information] [27.03.2014 11:18:20] x264 [info]: ref B L1: 96.2% 3.8%[/HTML]

Ссылки для скачивания:

http//bt.hqclub.net/files/ok.png Торрент: Афоня (1975) BDRip 720p

Лучшая онлайн игра!


Публикация материалов сайта на сторонних ресурсах возможна только в неизменном виде.


Обсудить релиз на форуме

Вас также может заинтересовать:


  • 5
 (Голосов: 4)


Распечатать новость на принтере Комедия, Отечественный
Обновлено: 6.04.2014 - 11:33

КОММЕНТАРИИ

 №1. ru4lan

Статус: Кинокритик | Новостей: 0 | Комментариев: 2736
ru4lan режисерку стоит ждать? bg
~~~

6.04.2014 - 23:39   цитировать