Вас Приветствует Релиз-группа HQCLUB


Помощь ресурсу, очень ВАЖНО!!!



.


WELCOME
Добро пожаловать в наше интернет - сообщество!

Всех нас объединяет одна страсть - страсть к высококачественному кино. А это наш сайт. Ежедневно здесь мы публикуем десятки качественных, свежих, а порой и эксклюзивных релизов, которые Вы можете скачать совершенно бесплатно и без каких-либо регистраций. Посему рекомендуем Вам добавить HQClub себе в закладки, а также подписаться на нашу ленту новостей, чтобы всегда быть в курсе всех событий. Ну а если Вы такой же синий фил, как и мы, то милости просим на наш форум. И в заключение, попробуйте зарегистрироваться, ведь не так это и сложно и займет всего лишь пару минут! Вот увидите, Вам у нас понравится и Вы вольетесь в наш дружный коллектив! Ну а пока - осматривайтесь = )
Мы рады Вам !





Миллион способов потерять голову / A Million Ways to Die in the West (2014) BDRip-AVC

Оформил: Elheym | 16 октября 2014 - 19:19:57 | Комментариев: 6 | Обращений: 2594 {bookmarks_news}

http//lostpic.net/orig_images/3/d/a/3dae7a44f1f4006d27456f5ea7e0c1.png

Информация о фильме
Название: Миллион способов потерять голову
Оригинальное название: A Million Ways to Die in the West
Год выхода: 2014
Жанр: комедия, вестерн
Режиссер: Сет МакФарлейн
В ролях: Сет МакФарлейн, Шарлиз Терон, Аманда Сайфред, Лиам Нисон, Джованни Рибизи, Нил Патрик Харрис, Сара Силверман, Кристофер Хэйген, Уэс Стьюди, Мэтт Кларк

О фильме: Угораздило же влюбиться не в том месте и не в то время. Здесь хамят в ресторанах, о горячей воде слагают легенды, да и с транспортом полный коллапс. Но у таинственной незнакомки отменная фигура, да и стреляет она без промаха. Кто же по своей воле откажется от такой красотки?

«From the guy who brought you Ted»



http//rating.kinopoisk.ru/722886.gif http//tracker.0day.kiev.ua/imdb/imdb_tt250.gif

Релиз от - http//hqclub.net/images/hqclub.png
Автор рипа: Elheym

Выпущено: США, Bluegrass Films, Fuzzy Door Productions, Media Rights Capital, Media Rights Capital
Продолжительность: 01:56:01
Перевод: Профессиональный (полное дублирование)
Оригинальная аудио дорожка: английский
Субтитры: русские (полные), украинские (полные), английские (полные, полные SDH, полные SDH Colored)
Главы: присутствуют, сохранены оригинальные

Дополнительные аудиодорожки:
+ Профессиональный (многоголосый, закадровый), FiliZa Studio

Файл:
Формат: MKV
Качество: BDRip-AVC (источник: http//i28.fastpic.ru/big/2011/1013/a8/a3d28e80c9544f4c572189fc892ea8.gif / Blu-ray EUR / 1080p)
Видео: 1128x470 (2.40:1), 23.976 fps, MPEG-4 AVC, ~2500 kbps avg, 0.197 bit/pixel
Аудио #1: AC3 Dolby Digital, 3/2 (L,C,R,l,r) + LFE ch, ~448 kbps (DUB)
Аудио #2: AC3 Dolby Digital, 3/2 (L,C,R,l,r) + LFE ch, ~448 kbps (ENG)
Аудио #3: AC3 Dolby Digital, 2/0 (L,R) + LFE ch, ~192 kbps (MVO.FILIZA.STUDIO) (отдельно)
Размер: 2.75 GB
Сэмпл: скачать

http//lostpic.net/thumbs_images/6/b/3/6b391fc4be19ba9fea43550eb0341877.png http//lostpic.net/thumbs_images/4/a/1/4a16ada5cce768742b88187c9a1a3928.png http//lostpic.net/thumbs_images/3/4/e/34ee183d525badfd975a0c79793a2626.png http//lostpic.net/thumbs_images/a/1/4/a14c989ebfa5d9361811bb1e63ae.png http//lostpic.net/thumbs_images/a/e/b/aeb474224d817b78a815434b79418e.png http//lostpic.net/thumbs_images/f/3/2/f327859c32ead621fda03f47bb0fc8ec.png

"MediaInfo"

Уникальный идентификатор : 235650310264947272957518631825534596706 (0xB148995123B61C4DBE7EC3526007B662)
Полное имя : A.Million.Ways.to.Die.in.the.West.2014.DUAL.BDRip-AVC.x264.AC3.-HQCLUB.mkv
Формат : Matroska
Версия формата : Version 2
Размер файла : 2,75 Гбайт
Продолжительность : 1 ч. 56 м.
Общий поток : 3398 Кбит/сек
Дата кодирования : UTC 2014-10-16 14:32:51
Программа кодирования : mkvmerge v5.2.0 ('I can't explain') built on Dec 18 2011 18:12:03
Библиотека кодирования : libebml v1.2.3 + libmatroska v1.3.0

Видео
Идентификатор : 1
Формат : AVC
Формат/Информация : Advanced Video Codec
Профиль формата : High@L4.1
Параметр CABAC формата : Да
Параметр ReFrames формата : 12 кадров
Идентификатор кодека : V_MPEG4/ISO/AVC
Продолжительность : 1 ч. 56 м.
Битрейт : 2500 Кбит/сек
Ширина : 1128 пикселей
Высота : 470 пикселей
Соотношение сторон : 2,40:1
Режим частоты кадров : Постоянный
Частота кадров : 23,976 кадра/сек
Цветовое пространство : YUV
Субдискретизация насыщенности : 4:2:0
Битовая глубина : 8 бит
Тип развёртки : Прогрессивная
Бит/(Пиксели*Кадры) : 0.197
Размер потока : 1,97 Гбайт (72%)
Заголовок : Миллион способов потерять голову / A Million Ways to Die in the West (2014) BDRip-AVC by HQCLUB [Elheym]
Библиотека кодирования : x264 core 142 r2479kMod dd79a61
Настройки программы : cabac=1 / ref=12 / deblock=1:-3:-2 / analyse=0x3:0x113 / me=umh / subme=11 / psy=1 / fade_compensate=0.00 / psy_rd=1.00:0.00 / mixed_ref=1 / me_range=32 / chroma_me=1 / trellis=2 / 8x8dct=1 / cqm=0 / deadzone=21,11 / fast_pskip=0 / chroma_qp_offset=-4 / threads=6 / lookahead_threads=1 / sliced_threads=0 / nr=0 / decimate=1 / interlaced=0 / bluray_compat=0 / constrained_intra=0 / fgo=0 / bframes=9 / b_pyramid=2 / b_adapt=2 / b_bias=0 / direct=3 / weightb=1 / open_gop=0 / weightp=2 / keyint=230 / keyint_min=23 / scenecut=40 / intra_refresh=0 / rc_lookahead=40 / rc=2pass / mbtree=1 / bitrate=2500 / ratetol=1.0 / qcomp=0.70 / qpmin=0 / qpmax=69 / qpstep=4 / cplxblur=20.0 / qblur=0.5 / vbv_maxrate=50000 / vbv_bufsize=62500 / nal_hrd=none / filler=0 / ip_ratio=1.40 / aq=3:0.90
Язык : English
Default : Да
Forced : Нет

Аудио #1
Идентификатор : 2
Формат : AC-3
Формат/Информация : Audio Coding 3
Расширение режима : CM (complete main)
Параметр Endianness формата : Big
Идентификатор кодека : A_AC3
Продолжительность : 1 ч. 56 м.
Вид битрейта : Постоянный
Битрейт : 448 Кбит/сек
Каналы : 6 каналов
Расположение каналов : Front: L C R, Side: L R, LFE
Частота : 48,0 КГц
Битовая глубина : 16 бит
Метод сжатия : С потерями
Размер потока : 372 Мбайт (13%)
Заголовок : АС3 5.1 @ 448 kbps - Dub, BD EUR
Язык : Russian
Default : Нет
Forced : Нет

Аудио #2
Идентификатор : 3
Формат : AC-3
Формат/Информация : Audio Coding 3
Расширение режима : CM (complete main)
Параметр Endianness формата : Big
Идентификатор кодека : A_AC3
Продолжительность : 1 ч. 56 м.
Вид битрейта : Постоянный
Битрейт : 448 Кбит/сек
Каналы : 6 каналов
Расположение каналов : Front: L C R, Side: L R, LFE
Частота : 48,0 КГц
Битовая глубина : 16 бит
Метод сжатия : С потерями
Размер потока : 372 Мбайт (13%)
Заголовок : АС3 5.1 @ 448 kbps - Original
Язык : English
Default : Нет
Forced : Нет

Текст #1
Идентификатор : 4
Формат : UTF-8
Идентификатор кодека : S_TEXT/UTF8
Идентификатор кодека/Информация : UTF-8 Plain Text
Заголовок : Full
Язык : Russian
Default : Нет
Forced : Нет

Текст #2
Идентификатор : 5
Формат : UTF-8
Идентификатор кодека : S_TEXT/UTF8
Идентификатор кодека/Информация : UTF-8 Plain Text
Заголовок : Full
Язык : Ukrainian
Default : Нет
Forced : Нет

Текст #3
Идентификатор : 6
Формат : UTF-8
Идентификатор кодека : S_TEXT/UTF8
Идентификатор кодека/Информация : UTF-8 Plain Text
Заголовок : Full
Язык : English
Default : Нет
Forced : Нет

Текст #4
Идентификатор : 7
Формат : UTF-8
Идентификатор кодека : S_TEXT/UTF8
Идентификатор кодека/Информация : UTF-8 Plain Text
Заголовок : Full SDH
Язык : English
Default : Нет
Forced : Нет

Текст #5
Идентификатор : 8
Формат : UTF-8
Идентификатор кодека : S_TEXT/UTF8
Идентификатор кодека/Информация : UTF-8 Plain Text
Заголовок : Full SDH Colored
Язык : English
Default : Нет
Forced : Нет

Меню
00:00:00.000 : :Chapter 01
00:03:02.140 : :Chapter 02
00:08:25.796 : :Chapter 03
00:12:26.996 : :Chapter 04
00:18:24.895 : :Chapter 05
00:23:06.176 : :Chapter 06
00:28:13.441 : :Chapter 07
00:35:10.441 : :Chapter 08
00:39:33.704 : :Chapter 09
00:44:59.822 : :Chapter 10
00:50:14.469 : :Chapter 11
00:58:14.532 : :Chapter 12
01:05:44.941 : :Chapter 13
01:13:28.070 : :Chapter 14
01:17:55.128 : :Chapter 15
01:23:44.561 : :Chapter 16
01:27:24.656 : :Chapter 17
01:35:27.888 : :Chapter 18
01:42:52.374 : :Chapter 19
01:49:42.951 : :Chapter 20
01:56:01.079 : :Chapter 21

"x264 log"

x264 [info]: frame I:1915 Avg QP:14.48 size:113852
x264 [info]: frame P:38191 Avg QP:17.52 size: 27238
x264 [info]: frame B:126799 Avg QP:20.60 size: 7229

x264 [info]: consecutive B-frames: 2.5% 2.4% 12.7% 23.9% 18.4% 33.3% 3.9% 1.4% 0.8% 0.8%

x264 [info]: ref P L0: 45.8% 10.5% 16.4% 7.0% 5.1% 3.7% 3.3% 2.2% 1.7% 1.4% 1.3% 1.3% 0.2% 0.0%
x264 [info]: ref B L0: 73.9% 10.7% 5.7% 2.9% 1.9% 1.4% 1.4% 0.8% 0.6% 0.4% 0.2%
x264 [info]: ref B L1: 92.9% 7.1%


Ссылки для скачивания:

http//bt.hqclub.net/files/ok.png Торрент: Миллион способов потерять голову / A Million Ways to Die in the West (2014) BDRip-AVC

Лучшая онлайн игра!


Публикация материалов сайта на сторонних ресурсах возможна только в неизменном виде.


Обсудить релиз на форуме

Вас также может заинтересовать:


  • 4
 (Голосов: 3)


Распечатать новость на принтере Комедия, Вестерн
Обновлено: 2.11.2014 - 13:57

КОММЕНТАРИИ

 №1. Kino1

Статус: Новичок | Новостей: 0 | Комментариев: 13
Kino1 Спасибо)
~~~

16.10.2014 - 19:35   цитировать  

 №2. zeffc63

Статус: Кинокритик | Новостей: 0 | Комментариев: 1096
zeffc63 Вот это хороший размерчик, беру.. Спасибо автору!
~~~

16.10.2014 - 21:50   цитировать  

 №3. zeffc63

Статус: Кинокритик | Новостей: 0 | Комментариев: 1096
zeffc63 Elheym Ваши релизы почему то здесь не скачиваются, беру с рутора..
~~~

16.10.2014 - 22:01   цитировать  

 №4. Raw_hide

Статус: Новичок | Новостей: 0 | Комментариев: 37
Фильм на один раз, слишком много тупого американского юмора
~~~

17.10.2014 - 21:23   цитировать  

 №5. Elheym

Статус: Стажер | Новостей: 320 | Комментариев: 70
Добавлен перевод: Профессиональный (многоголосый, закадровый), FiliZa Studio

zeffc63, такое бывает. Возможно даже чаще, чем об этом догадываюсь.
~~~

2.11.2014 - 14:09   цитировать  

 №6. ru4lan

Статус: Кинокритик | Новостей: 0 | Комментариев: 2736
ru4lan беру
~~~

6.11.2014 - 15:02   цитировать