Вас Приветствует Релиз-группа HQCLUB


Помощь ресурсу, очень ВАЖНО!!!



.


WELCOME
Добро пожаловать в наше интернет - сообщество!

Всех нас объединяет одна страсть - страсть к высококачественному кино. А это наш сайт. Ежедневно здесь мы публикуем десятки качественных, свежих, а порой и эксклюзивных релизов, которые Вы можете скачать совершенно бесплатно и без каких-либо регистраций. Посему рекомендуем Вам добавить HQClub себе в закладки, а также подписаться на нашу ленту новостей, чтобы всегда быть в курсе всех событий. Ну а если Вы такой же синий фил, как и мы, то милости просим на наш форум. И в заключение, попробуйте зарегистрироваться, ведь не так это и сложно и займет всего лишь пару минут! Вот увидите, Вам у нас понравится и Вы вольетесь в наш дружный коллектив! Ну а пока - осматривайтесь = )
Мы рады Вам !





Не будите спящую собаку / Flirting with Disaster (1996) BDRip 720p

Оформил: Sky™ | 1 мая 2013 - 11:42:29 | Комментариев: 3 | Обращений: 1047 {bookmarks_news}

http//lostpic.net/images/0c31c50b21a90638cc820e519eb0d1fe.png

Информация о фильме:
Название: Не будите спящую собаку
Оригинальное название: Flirting with Disaster
Год выхода: 1996
Жанр: комедия
Режиссер: Дэвид О. Расселл
В ролях: Бен Стиллер, Патриция Аркетт, Теа Леони, Алан Алда, Мэри Тайлер Мур, Джордж Сигал, Лили Томлин, Джош Бролин, Ричард Дженкинс, Селия Уэстон

О фильме: Мел Коплин, отец четырехмесячного младенца, живет в Нью-Йорке. Вдруг ему приходит в голову, что он никак не может дать имя своему ребенку, не разыскав своих настоящих биологических родителей.

Несмотря на яростные возражения очень шумных родителей, которые его усыновили, Мел, его несколько «отмороженная» жена Нэнси и младенец летят в Сан-Диего вместе с врачом-психиатром Тиной из агенства по усыновлению, вечно нервничающей и скандалящей из-за предстоящего ей развода...

http//rating.kinopoisk.ru/4147.gif http//toponlinekino.ru/imdb/tt0116324.png

Релиз от - http//hqclub.net/images/hqclub.png
Автор рипа: Sky™

Выпущено: США (Miramax Films)
Продолжительность: 01:32:48
Перевод: Профессиональный (многоголосый, закадровый) R5 + Оригинальная звуковая дорожка (Английская)
Субтитры: Русские (*.srt, отключаемые)
Сохранены оригинальные чаптеры как на Blu-ray.

Файл:
Формат: mkv
Качество: BDRip 720p (источник: http//lostpic.net/images/953a96a00e963ac6907f450837a55c1e.png / Blu-Ray Disc / 1080p)
Видео: 1280x692 (1.85:1), 24 fps, X264@L4.1 ~6726 kbps avg, 0.316 bit/pixel
Аудио #1: 48 kHz, AC3 Dolby Digital, 3/2 (L,C,R,l,r) + LFE ch, ~640 kbps avg (RUS) R5
Аудио #2: 48 kHz, AC3 Dolby Digital, 3/2 (L,C,R,l,r) + LFE ch, ~640 kbps avg (ENG)
Размер: 5422.20 Mb
http//lostpic.net/images/1b899dddff9c84e7020a856612f5c646.png

http//lostpic.net/thumbs/ae2f5e8274422c4a40aabd454b1cec79.png http//lostpic.net/thumbs/a990722f661936377e12c6811ae065a1.png http//lostpic.net/thumbs/e416635ca75dd975df6e94f0a918.png http//lostpic.net/thumbs/e2e46410b6e803d9a5e7556e96e400ce.png http//lostpic.net/thumbs/2b29f3aaa83bc14763fb86a2c96c93bc.png http//lostpic.net/thumbs/ee5e109c8d85edc50b191bbe51be56b4.png

MediaINFO
[HTML]Полное имя : Ne.budite.spyaschuyu.sobaku.1996.BDRip.720p.H264.AC3.-HQCLUB.mkv
Формат : Matroska
Версия формата : Version 4 / Version 2
Размер файла : 5,30 Гбайт
Продолжительность : 1 ч. 32 м.
Общий поток : 8168 Кбит/сек
Дата кодирования : UTC 2010-02-22 21:41:31
Программа кодирования : mkvmerge v5.9.0 ('On The Loose') built on Dec 9 2012 15:37:01
Библиотека кодирования : libebml v1.3.0 + libmatroska v1.4.0

Видео
Идентификатор : 1
Формат : AVC
Формат/Информация : Advanced Video Codec
Профиль формата : High@L4.1
Параметр CABAC формата : Да
Параметр ReFrames формата : 4 кадра
Идентификатор кодека : V_MPEG4/ISO/AVC
Продолжительность : 1 ч. 32 м.
Битрейт : 6726 Кбит/сек
Ширина : 1280 пикселей
Высота : 692 пикселя
Соотношение сторон : 1,85:1
Режим частоты кадров : Постоянный
Частота кадров : 24,000 кадра/сек
Цветовое пространство : YUV
Субдискретизация насыщенности : 4:2:0
Битовая глубина : 8 бит
Тип развёртки : Прогрессивная
Бит/(Пиксели*Кадры) : 0.316
Размер потока : 4,36 Гбайт (82%)
Заголовок : Не будите спящую собаку / Flirting with Disaster (1996) BDRip 720p | HQCLUB
Библиотека кодирования : x264 core 120 r2146 bcd41db
Настройки программы : cabac=1 / ref=3 / deblock=1:-2:-2 / analyse=0x3:0x113 / me=umh / subme=11 / psy=1 / psy_rd=1.00:0.00 / mixed_ref=1 / me_range=48 / chroma_me=1 / trellis=2 / 8x8dct=1 / cqm=0 / deadzone=21,11 / fast_pskip=1 / chroma_qp_offset=-2 / threads=12 / sliced_threads=0 / nr=0 / decimate=1 / interlaced=0 / bluray_compat=0 / constrained_intra=0 / bframes=11 / b_pyramid=2 / b_adapt=2 / b_bias=0 / direct=1 / weightb=1 / open_gop=0 / weightp=2 / keyint=250 / keyint_min=23 / scenecut=40 / intra_refresh=0 / rc_lookahead=40 / rc=crf / mbtree=0 / crf=17.0 / qcomp=0.60 / qpmin=0 / qpmax=69 / qpstep=4 / vbv_maxrate=62500 / vbv_bufsize=50000 / crf_max=0.0 / nal_hrd=none / ip_ratio=1.40 / pb_ratio=1.30 / aq=1:0.90
Язык : English
Default : Да
Forced : Нет

Аудио #1
Идентификатор : 2
Формат : AC-3
Формат/Информация : Audio Coding 3
Расширение режима : CM (complete main)
Параметр Endianness формата : Big
Идентификатор кодека : A_AC3
Продолжительность : 1 ч. 32 м.
Вид битрейта : Постоянный
Битрейт : 640 Кбит/сек
Каналы : 6 каналов
Расположение каналов : Front: L C R, Side: L R, LFE
Частота : 48,0 КГц
Битовая глубина : 16 бит
Метод сжатия : С потерями
Размер потока : 425 Мбайт (8%)
Заголовок : Многоголоска (R5) AC3 5.1 @ 640 kbps
Язык : Russian
Default : Да
Forced : Нет

Аудио #2
Идентификатор : 3
Формат : AC-3
Формат/Информация : Audio Coding 3
Расширение режима : CM (complete main)
Параметр Endianness формата : Big
Идентификатор кодека : A_AC3
Продолжительность : 1 ч. 32 м.
Вид битрейта : Постоянный
Битрейт : 640 Кбит/сек
Каналы : 6 каналов
Расположение каналов : Front: L C R, Side: L R, LFE
Частота : 48,0 КГц
Битовая глубина : 16 бит
Метод сжатия : С потерями
Размер потока : 425 Мбайт (8%)
Заголовок : Оригинал AC3 5.1 @ 640 kbps
Язык : English
Default : Нет
Forced : Нет

Текст
Идентификатор : 4
Формат : UTF-8
Идентификатор кодека : S_TEXT/UTF8
Идентификатор кодека/Информация : UTF-8 Plain Text
Заголовок : Full
Язык : Russian
Default : Да
Forced : Нет

Меню
00:00:00.000 : en:00:00:00.000
00:04:37.125 : en:00:04:37.125
00:08:03.500 : en:00:08:03.500
00:10:20.250 : en:00:10:20.250
00:15:45.750 : en:00:15:45.750
00:21:06.958 : en:00:21:06.958
00:26:23.875 : en:00:26:23.875
00:30:43.208 : en:00:30:43.208
00:34:31.250 : en:00:34:31.250
00:38:04.042 : en:00:38:04.042
00:41:16.708 : en:00:41:16.708
00:44:18.375 : en:00:44:18.375
00:47:14.500 : en:00:47:14.500
00:51:03.583 : en:00:51:03.583
00:53:18.833 : en:00:53:18.833
00:56:06.208 : en:00:56:06.208
01:00:36.667 : en:01:00:36.667
01:04:12.208 : en:01:04:12.208
01:06:59.125 : en:01:06:59.125
01:09:16.958 : en:01:09:16.958
01:13:34.125 : en:01:13:34.125
01:17:55.708 : en:01:17:55.708
01:21:46.042 : en:01:21:46.042
01:24:32.667 : en:01:24:32.667[/HTML]

x264 log
[HTML]---[NoImage] x264 [info]: frame I:45 Avg QP:16.31 size:112598
---[NoImage] x264 [info]: frame P:540 Avg QP:16.86 size: 56329
---[NoImage] x264 [info]: frame B:1958 Avg QP:19.74 size: 29637
---[NoImage] x264 [info]: consecutive B-frames: 5.1% 0.9% 4.1% 12.1% 20.4% 41.5% 9.1% 2.8% 1.8% 0.8% 0.9% 0.5%
---[NoImage] x264 [info]: mb I I16..4: 9.2% 79.4% 11.3%
---[NoImage] x264 [info]: mb P I16..4: 1.1% 22.9% 1.9% P16..4: 19.7% 26.7% 10.2% 0.0% 0.0% skip:17.7%
---[NoImage] x264 [info]: mb B I16..4: 0.2% 3.2% 0.3% B16..8: 36.2% 26.3% 5.9% direct: 8.9% skip:19.0% L0:39.4% L1:43.5% BI:17.1%
---[NoImage] x264 [info]: 8x8 transform intra:86.3% inter:63.4%
---[NoImage] x264 [info]: coded y,uvDC,uvAC intra: 90.6% 93.9% 83.4% inter: 48.3% 41.6% 8.6%
---[NoImage] x264 [info]: i16 v,h,dc,p: 73% 6% 14% 7%
---[NoImage] x264 [info]: i8 v,h,dc,ddl,ddr,vr,hd,vl,hu: 10% 7% 8% 10% 14% 13% 12% 12% 13%
---[NoImage] x264 [info]: i4 v,h,dc,ddl,ddr,vr,hd,vl,hu: 33% 5% 8% 7% 11% 11% 9% 8% 8%
---[NoImage] x264 [info]: i8c dc,h,v,p: 49% 21% 16% 14%
---[NoImage] x264 [info]: Weighted P-Frames: Y:3.5% UV:0.2%
---[NoImage] x264 [info]: ref P L0: 51.0% 12.1% 26.3% 10.4% 0.2%
---[NoImage] x264 [info]: ref B L0: 87.2% 10.5% 2.3%
---[NoImage] x264 [info]: ref B L1: 92.6% 7.4%[/HTML]


Ссылки для скачивания:

http//bt.hqclub.net/files/ok.png Торрент: Не будите спящую собаку / Flirting with Disaster (1996) BDRip 720p

Лучшая онлайн игра!


Публикация материалов сайта на сторонних ресурсах возможна только в неизменном виде.


Обсудить релиз на форуме

Вас также может заинтересовать:


  • 0
 (Голосов: 0)


Распечатать новость на принтере Комедия
Обновлено: 1.05.2013 - 11:43

КОММЕНТАРИИ

 №1. ru4lan

Статус: Кинокритик | Новостей: 0 | Комментариев: 2736
ru4lan помоему подобные фильмы в таком размере не нуждаются
~~~

1.05.2013 - 20:48   цитировать  

 №2. zeffc63

Статус: Кинокритик | Новостей: 0 | Комментариев: 1096
zeffc63 ru4lan Я думаю что дело не в размере, а в качестве.. (точно не знаю, я так думаю) Но я понял о чем ты говоришь..
~~~

2.05.2013 - 09:52   цитировать  

 №3. ru4lan

Статус: Кинокритик | Новостей: 0 | Комментариев: 2736
ru4lan zeffc63, ты как всегда прав ad
~~~

3.05.2013 - 00:08   цитировать