Вас Приветствует Релиз-группа HQCLUB


Помощь ресурсу, очень ВАЖНО!!!



.


WELCOME
Добро пожаловать в наше интернет - сообщество!

Всех нас объединяет одна страсть - страсть к высококачественному кино. А это наш сайт. Ежедневно здесь мы публикуем десятки качественных, свежих, а порой и эксклюзивных релизов, которые Вы можете скачать совершенно бесплатно и без каких-либо регистраций. Посему рекомендуем Вам добавить HQClub себе в закладки, а также подписаться на нашу ленту новостей, чтобы всегда быть в курсе всех событий. Ну а если Вы такой же синий фил, как и мы, то милости просим на наш форум. И в заключение, попробуйте зарегистрироваться, ведь не так это и сложно и займет всего лишь пару минут! Вот увидите, Вам у нас понравится и Вы вольетесь в наш дружный коллектив! Ну а пока - осматривайтесь = )
Мы рады Вам !





Плохие слова / Bad Words (2013) BDRip-AVC

Оформил: Elheym | 29 октября 2014 - 19:11:37 | Комментариев: 1 | Обращений: 952 {bookmarks_news}

http//lostpic.net/orig_images/e/1/a/e1a9ce6920c25b4531e9c8772d86.jpg

Информация о фильме:
Название: Плохие слова
Оригинальное название: Bad Words
Год выхода: 2013
Жанр: комедия
Режиссер: Джейсон Бейтман / Jason Bateman
В ролях: Джейсон Бейтман, Кэтрин Хан, Аманда Энка, Роэн Чанд, Филип Бейкер Холл, Эллисон Дженни, Бен Фэлкоун, Стив Уиттинг, Бет Грант, Гвен Парден, Анжул Нигам

О фильме: Фильм рассказывает о мужчине, который хочет попасть на соревнование по правописанию и попадает на него, найдя в регламенте конкурса лазейку...

«The end justifies the mean»



http//rating.kinopoisk.ru/692217.gif http//tracker.0day.kiev.ua/imdb/imdb_tt2170299.gif

Релиз от - http//hqclub.net/images/hqclub.png
Автор рипа: Elheym

Выпущено: США, Aggregate Films, Darko Entertainment
Продолжительность: 01:28:55
Перевод : Профессиональный (полное дублирование), BD EUR
Оригинальная аудио дорожка: английский
Субтитры: русские (полные, форсированные), украинские (полные), английские (полные, полные SDH)
Главы: присутствуют, сохранены оригинальные

Файл:
Формат: MKV
Качество: BDRip-AVC (источник: http//i28.fastpic.ru/big/2011/1013/a8/a3d28e80c9544f4c572189fc892ea8.gif / Blu-ray EUR / 1080p)
Видео: 1146x478 (2.40:1), 23.976 fps, MPEG-4 AVC, ~3264 kbps avg, 0.249 bit/pixel
Аудио #1: 48 kHz, AC3 Dolby Digital, 3/2 (L,C,R,l,r) + LFE ch, ~448 kbps avg (DUB)
Аудио #2: 48 kHz, AC3 Dolby Digital, 3/2 (L,C,R,l,r) + LFE ch, ~448 kbps avg (ENG)
Размер: 2.63 GB
Сэмпл: скачать

http//lostpic.net/thumbs_images/4/d/5/4d5d61365f03a4710640ff8b910955fa.png http//lostpic.net/thumbs_images/2/5/7/296bfbaff54664db5dad94f9d5edf1.png http//lostpic.net/thumbs_images/3/6/a/36aa195b951ec729387d5014af98d8a0.png http//lostpic.net/thumbs_images/e/4/a/e4afe0b85c61b71227bc6553d04c.png http//lostpic.net/thumbs_images/4/e/c/4ec3f8c44269c21d4647d0445983ac0f.png http//lostpic.net/thumbs_images/b/c/2/bc2a4ef9153d74bcb03907d5159b29ad.png

"MediaInfo"

Уникальный идентификатор : 226626626640396691212515053269771674263 (0xAA7EB35D6B6DA2A69D43995465D4E297)
Полное имя : Bad.Words.2013.DUAL.BDRip-AVC.x264.AC3.-HQCLUB.mkv
Формат : Matroska
Версия формата : Version 2
Размер файла : 2,64 Гбайт
Продолжительность : 1 ч. 28 м.
Общий поток : 4245 Кбит/сек
Дата кодирования : UTC 2014-10-29 14:06:37
Программа кодирования : mkvmerge v5.2.0 ('I can't explain') built on Dec 18 2011 18:12:03
Библиотека кодирования : libebml v1.2.3 + libmatroska v1.3.0

Видео
Идентификатор : 1
Формат : AVC
Формат/Информация : Advanced Video Codec
Профиль формата : High@L4.1
Параметр CABAC формата : Да
Параметр ReFrames формата : 11 кадров
Идентификатор кодека : V_MPEG4/ISO/AVC
Продолжительность : 1 ч. 28 м.
Битрейт : 3264 Кбит/сек
Ширина : 1146 пикселей
Высота : 478 пикселей
Соотношение сторон : 2,40:1
Режим частоты кадров : Постоянный
Частота кадров : 23,976 кадра/сек
Цветовое пространство : YUV
Субдискретизация насыщенности : 4:2:0
Битовая глубина : 8 бит
Тип развёртки : Прогрессивная
Бит/(Пиксели*Кадры) : 0.249
Размер потока : 2,03 Гбайт (77%)
Заголовок : Плохие слова / Bad Words (2013) BDRip-AVC by HQCLUB [Elheym]
Библиотека кодирования : x264 core 142 r2479kMod dd79a61
Настройки программы : cabac=1 / ref=11 / deblock=1:-3:-2 / analyse=0x3:0x113 / me=umh / subme=11 / psy=1 / fade_compensate=0.00 / psy_rd=1.00:0.00 / mixed_ref=1 / me_range=32 / chroma_me=1 / trellis=2 / 8x8dct=1 / cqm=0 / deadzone=21,11 / fast_pskip=0 / chroma_qp_offset=-4 / threads=6 / lookahead_threads=1 / sliced_threads=0 / nr=0 / decimate=1 / interlaced=0 / bluray_compat=0 / constrained_intra=0 / fgo=0 / bframes=14 / b_pyramid=2 / b_adapt=2 / b_bias=0 / direct=1 / weightb=1 / open_gop=0 / weightp=2 / keyint=230 / keyint_min=23 / scenecut=40 / intra_refresh=0 / rc_lookahead=40 / rc=crf / mbtree=1 / crf=16.6500 / qcomp=0.70 / qpmin=0 / qpmax=69 / qpstep=4 / vbv_maxrate=50000 / vbv_bufsize=62500 / crf_max=0.0 / nal_hrd=none / filler=0 / ip_ratio=1.40 / aq=1:0.90 / zones=123380,127932,q=37
Язык : English
Default : Да
Forced : Нет

Аудио #1
Идентификатор : 2
Формат : AC-3
Формат/Информация : Audio Coding 3
Расширение режима : CM (complete main)
Параметр Endianness формата : Big
Идентификатор кодека : A_AC3
Продолжительность : 1 ч. 28 м.
Вид битрейта : Постоянный
Битрейт : 448 Кбит/сек
Каналы : 6 каналов
Расположение каналов : Front: L C R, Side: L R, LFE
Частота : 48,0 КГц
Битовая глубина : 16 бит
Метод сжатия : С потерями
Размер потока : 285 Мбайт (11%)
Заголовок : АС3 5.1 @ 448 kbps - Dub, BD EUR
Язык : Russian
Default : Нет
Forced : Нет

Аудио #2
Идентификатор : 3
Формат : AC-3
Формат/Информация : Audio Coding 3
Расширение режима : CM (complete main)
Параметр Endianness формата : Big
Идентификатор кодека : A_AC3
Продолжительность : 1 ч. 28 м.
Вид битрейта : Постоянный
Битрейт : 448 Кбит/сек
Каналы : 6 каналов
Расположение каналов : Front: L C R, Side: L R, LFE
Частота : 48,0 КГц
Битовая глубина : 16 бит
Метод сжатия : С потерями
Размер потока : 285 Мбайт (11%)
Заголовок : АС3 5.1 @ 448 kbps - Original
Язык : English
Default : Нет
Forced : Нет

Текст #1
Идентификатор : 4
Формат : UTF-8
Идентификатор кодека : S_TEXT/UTF8
Идентификатор кодека/Информация : UTF-8 Plain Text
Заголовок : Full
Язык : Russian
Default : Нет
Forced : Нет

Текст #2
Идентификатор : 5
Формат : UTF-8
Идентификатор кодека : S_TEXT/UTF8
Идентификатор кодека/Информация : UTF-8 Plain Text
Заголовок : Forced
Язык : Russian
Default : Нет
Forced : Нет

Текст #3
Идентификатор : 6
Формат : UTF-8
Идентификатор кодека : S_TEXT/UTF8
Идентификатор кодека/Информация : UTF-8 Plain Text
Заголовок : Full
Язык : Ukrainian
Default : Нет
Forced : Нет

Текст #4
Идентификатор : 7
Формат : UTF-8
Идентификатор кодека : S_TEXT/UTF8
Идентификатор кодека/Информация : UTF-8 Plain Text
Заголовок : Full
Язык : English
Default : Нет
Forced : Нет

Текст #5
Идентификатор : 8
Формат : UTF-8
Идентификатор кодека : S_TEXT/UTF8
Идентификатор кодека/Информация : UTF-8 Plain Text
Заголовок : Full SDH
Язык : English
Default : Нет
Forced : Нет

Меню
00:00:00.000 : :Chapter 01
00:05:48.222 : :Chapter 02
00:11:16.425 : :Chapter 03
00:14:19.984 : :Chapter 04
00:19:31.837 : :Chapter 05
00:24:01.690 : :Chapter 06
00:27:12.130 : :Chapter 07
00:32:05.423 : :Chapter 08
00:36:06.914 : :Chapter 09
00:40:09.532 : :Chapter 10
00:45:48.203 : :Chapter 11
00:48:37.831 : :Chapter 12
00:55:09.431 : :Chapter 13
01:00:34.589 : :Chapter 14
01:05:42.438 : :Chapter 15
01:08:21.555 : :Chapter 16
01:12:16.123 : :Chapter 17
01:17:00.532 : :Chapter 18
01:21:13.827 : :Chapter 19
01:25:53.273 : :Chapter 20
01:28:55.580 : :Chapter 21

"x264 log"

x264 [info]: frame I:1252 Avg QP:13.51 size:122678
x264 [info]: frame P:23647 Avg QP:17.14 size: 32798
x264 [info]: frame B:103033 Avg QP:18.65 size: 12642

x264 [info]: consecutive B-frames: 1.5% 1.0% 4.3% 10.5% 15.2% 49.0% 8.3% 1.5% 2.1% 0.9% 2.3% 0.8% 0.6% 1.0% 0.8%

x264 [info]: ref P L0: 42.9% 8.2% 19.4% 7.2% 6.4% 4.2% 4.0% 2.1% 2.1% 1.6% 1.7% 0.1% 0.0%
x264 [info]: ref B L0: 66.0% 14.3% 7.3% 3.9% 2.7% 2.2% 1.7% 1.1% 0.6% 0.3%
x264 [info]: ref B L1: 90.3% 9.7%


Ссылки для скачивания:

http//bt.hqclub.net/files/ok.png Торрент: Плохие слова / Bad Words (2013) BDRip-AVC

Лучшая онлайн игра!


Публикация материалов сайта на сторонних ресурсах возможна только в неизменном виде.


Обсудить релиз на форуме

Вас также может заинтересовать:


  • 0
 (Голосов: 0)


Распечатать новость на принтере Комедия

КОММЕНТАРИИ

 №1. ru4lan

Статус: Кинокритик | Новостей: 0 | Комментариев: 2736
ru4lan спасибо!
~~~

6.11.2014 - 14:28   цитировать