Вас Приветствует Релиз-группа HQCLUB


Помощь ресурсу, очень ВАЖНО!!!



.


WELCOME
Добро пожаловать в наше интернет - сообщество!

Всех нас объединяет одна страсть - страсть к высококачественному кино. А это наш сайт. Ежедневно здесь мы публикуем десятки качественных, свежих, а порой и эксклюзивных релизов, которые Вы можете скачать совершенно бесплатно и без каких-либо регистраций. Посему рекомендуем Вам добавить HQClub себе в закладки, а также подписаться на нашу ленту новостей, чтобы всегда быть в курсе всех событий. Ну а если Вы такой же синий фил, как и мы, то милости просим на наш форум. И в заключение, попробуйте зарегистрироваться, ведь не так это и сложно и займет всего лишь пару минут! Вот увидите, Вам у нас понравится и Вы вольетесь в наш дружный коллектив! Ну а пока - осматривайтесь = )
Мы рады Вам !





Танцуй отсюда! / Cuban Fury (2014) BDRip-AVC

Оформил: Gellard | 17 июня 2014 - 15:42:20 | Комментариев: 1 | Обращений: 1142 {bookmarks_news}

http//lostpic.net/orig_images/6/9/0/69062315e9468981919c862c327fdd04.png

Информация о фильме:
Название: Танцуй отсюда!
Оригинальное название: Cuban Fury
Год выхода: 2014
Жанр: комедия
Режиссер: Джеймс Гриффитс
В ролях: Ник Фрост, Рашида Джонс, Крис О’Дауд, Иэн МакШейн, Бен Рэдклифф, Isabella Steinbarth, Брэндон Робинсон, Луис Кайриаку, Киран Гаффни, Стив Орам

О фильме: Чтобы завоевать сердце прекрасной начальницы, одному в меру упитанному мужчине предстоит растрясти свои таланты в соревновании на самый зажигательный танец. Однако у него есть соперник, который не постесняется опуститься до очень грязных приемов.

«Реальные мужики зажигают»



http//rating.kinopoisk.ru/680345.gif http//bluebird-hd.org/imdb/imdb_tt2390237.gif

Релиз от - http//hqclub.net/images/hqclub.png
Автор рипа: Elheym

Выпущено: Великобритания
Продолжительность: 01:37:53
Перевод: профессиональный (полное дублирование) + оригинал (английский)
Субтитры: русские (полные), английские (полные)
Главы: присутствуют, сохранены оригинальные

Файл:
Формат: MKV
Качество: BDRip-AVC (источник: http//bluebird-hd.org/pic/group_blubird.png / Blu-ray Disc / 1080p)
Видео: 1024x432 (2.40:1), 23.976 fps, MPEG-4 AVC, ~2660 kbps avg, 0.251 bit/pixel
Аудио #1: 48 kHz, AC3 Dolby Digital, 3/2 (L,C,R,l,r) + LFE ch, ~384 kbps | Профессиональный (полное дублирование), R5 | (RUS)
Аудио #2: 48 kHz, AC3 Dolby Digital, 3/2 (L,C,R,l,r) + LFE ch, ~384 kbps | Оригинал | (ENG)
Размер: 2.34 GB
Сэмпл: скачать

http//lostpic.net/thumbs_images/5/9/f/59f6e0604a0cb107277160abc656717d.png http//lostpic.net/thumbs_images/b/7/4/b77a9b4a80c98e0ff60a1d079c54.png http//lostpic.net/thumbs_images/3/a/e/3aea692f9e82d82df3710885121764.png http//lostpic.net/thumbs_images/1/4/f/14f5d5ffedbb5d9400519e6a0717c3.png http//lostpic.net/thumbs_images/c/b/8/cb891796083c9dd9e3a7212394b8.png http//lostpic.net/thumbs_images/0/0/1/00128b893b4e428263a84dce273904.png

"MediaInfo"
Уникальный идентификатор : 223418404022734338128792583892355172675 (0xA814D1C70BE93654819ADD6DFDC6C943)
Полное имя : Cuban.Fury.2014.DUAL.BDRip-AVC.x264.AC3.-HQCLUB.mkv
Формат : Matroska
Версия формата : Version 2
Размер файла : 2,34 Гбайт
Продолжительность : 1 ч. 37 м.
Общий поток : 3429 Кбит/сек
Дата кодирования : UTC 2014-06-17 10:26:26
Программа кодирования : mkvmerge v5.2.0 ('I can't explain') built on Dec 18 2011 18:12:03
Библиотека кодирования : libebml v1.2.3 + libmatroska v1.3.0

Видео
Идентификатор : 1
Формат : AVC
Формат/Информация : Advanced Video Codec
Профиль формата : High@L4.1
Параметр CABAC формата : Да
Параметр ReFrames формата : 8 кадров
Идентификатор кодека : V_MPEG4/ISO/AVC
Продолжительность : 1 ч. 37 м.
Битрейт : 2660 Кбит/сек
Ширина : 1024 пикселя
Высота : 432 пикселя
Соотношение сторон : 2,40:1
Режим частоты кадров : Постоянный
Частота кадров : 23,976 кадра/сек
Цветовое пространство : YUV
Субдискретизация насыщенности : 4:2:0
Битовая глубина : 8 бит
Тип развёртки : Прогрессивная
Бит/(Пиксели*Кадры) : 0.251
Размер потока : 1,77 Гбайт (76%)
Заголовок : Танцуй отсюда! / Cuban Fury (2014) BDRip-AVC by HQCLUB [Elheym]
Библиотека кодирования : x264 core 142 r2431 ac76440
Настройки программы : cabac=1 / ref=9 / deblock=1:-3:-2 / analyse=0x3:0x113 / me=tesa / subme=11 / psy=1 / psy_rd=1.00:0.00 / mixed_ref=1 / me_range=32 / chroma_me=1 / trellis=2 / 8x8dct=1 / cqm=0 / deadzone=21,11 / fast_pskip=1 / chroma_qp_offset=-4 / threads=6 / lookahead_threads=1 / sliced_threads=0 / nr=0 / decimate=1 / interlaced=0 / bluray_compat=0 / constrained_intra=0 / bframes=10 / b_pyramid=1 / b_adapt=2 / b_bias=0 / direct=3 / weightb=1 / open_gop=0 / weightp=2 / keyint=240 / keyint_min=23 / scenecut=40 / intra_refresh=0 / rc_lookahead=40 / rc=2pass / mbtree=1 / bitrate=2660 / ratetol=1.0 / qcomp=0.60 / qpmin=10 / qpmax=69 / qpstep=4 / cplxblur=20.0 / qblur=0.5 / vbv_maxrate=50000 / vbv_bufsize=62500 / nal_hrd=none / filler=0 / ip_ratio=1.40 / aq=1:1.00
Язык : English
Default : Да
Forced : Нет

Аудио #1
Идентификатор : 2
Формат : AC-3
Формат/Информация : Audio Coding 3
Расширение режима : CM (complete main)
Параметр Endianness формата : Big
Идентификатор кодека : A_AC3
Продолжительность : 1 ч. 37 м.
Вид битрейта : Постоянный
Битрейт : 384 Кбит/сек
Каналы : 6 каналов
Расположение каналов : Front: L C R, Side: L R, LFE
Частота : 48,0 КГц
Битовая глубина : 16 бит
Метод сжатия : С потерями
Размер потока : 269 Мбайт (11%)
Заголовок : АС3 5.1 @ ~384 kbps - Dub, R5
Язык : Russian
Default : Нет
Forced : Нет

Аудио #2
Идентификатор : 3
Формат : AC-3
Формат/Информация : Audio Coding 3
Расширение режима : CM (complete main)
Параметр Endianness формата : Big
Идентификатор кодека : A_AC3
Продолжительность : 1 ч. 37 м.
Вид битрейта : Постоянный
Битрейт : 384 Кбит/сек
Каналы : 6 каналов
Расположение каналов : Front: L C R, Side: L R, LFE
Частота : 48,0 КГц
Битовая глубина : 16 бит
Метод сжатия : С потерями
Размер потока : 269 Мбайт (11%)
Заголовок : АС3 5.1 @ ~384 kbps - Original
Язык : English
Default : Нет
Forced : Нет

Текст #1
Идентификатор : 4
Формат : UTF-8
Идентификатор кодека : S_TEXT/UTF8
Идентификатор кодека/Информация : UTF-8 Plain Text
Заголовок : Full
Язык : Russian
Default : Нет
Forced : Нет

Текст #2
Идентификатор : 5
Формат : UTF-8
Идентификатор кодека : S_TEXT/UTF8
Идентификатор кодека/Информация : UTF-8 Plain Text
Заголовок : Full
Язык : English
Default : Нет
Forced : Нет

Меню
00:00:00.000 : :Chapter 01
00:07:52.555 : :Chapter 02
00:14:40.546 : :Chapter 03
00:22:37.439 : :Chapter 04
00:31:41.941 : :Chapter 05
00:39:04.884 : :Chapter 06
00:47:08.659 : :Chapter 07
00:53:48.808 : :Chapter 08
01:02:54.520 : :Chapter 09
01:09:19.864 : :Chapter 10
01:17:06.872 : :Chapter 11
01:26:49.245 : :Chapter 12

"x264 log"
x264 [info]: frame I:1434 Avg QP:14.42 size: 70011
x264 [info]: frame P:35897 Avg QP:17.22 size: 26453
x264 [info]: frame B:103492 Avg QP:19.85 size: 8713

x264 [info]: consecutive B-frames: 3.4% 6.8% 11.9% 29.1% 16.2% 27.4% 3.2% 0.7% 0.6% 0.2% 0.5%

x264 [info]: ref P L0: 56.2% 9.5% 15.1% 6.6% 4.6% 3.5% 2.7% 1.7% 0.2% 0.0%
x264 [info]: ref B L0: 81.4% 8.8% 4.2% 2.0% 1.5% 1.5% 0.6%
x264 [info]: ref B L1: 93.3% 6.7%


http//bt.hqclub.net/files/ok.png Торрент: Танцуй отсюда! / Cuban Fury (2014) BDRip-AVC

Лучшая онлайн игра!


Публикация материалов сайта на сторонних ресурсах возможна только в неизменном виде.


Обсудить релиз на форуме

Вас также может заинтересовать:


  • 5
 (Голосов: 5)


Распечатать новость на принтере Комедия
Обновлено: 20.06.2014 - 11:31

КОММЕНТАРИИ

 №1. ru4lan

Статус: Кинокритик | Новостей: 0 | Комментариев: 2736
ru4lan отличное сочетание размера и качества
~~~

23.06.2014 - 19:27   цитировать