Вас Приветствует Релиз-группа HQCLUB


Помощь ресурсу, очень ВАЖНО!!!



.


WELCOME
Добро пожаловать в наше интернет - сообщество!

Всех нас объединяет одна страсть - страсть к высококачественному кино. А это наш сайт. Ежедневно здесь мы публикуем десятки качественных, свежих, а порой и эксклюзивных релизов, которые Вы можете скачать совершенно бесплатно и без каких-либо регистраций. Посему рекомендуем Вам добавить HQClub себе в закладки, а также подписаться на нашу ленту новостей, чтобы всегда быть в курсе всех событий. Ну а если Вы такой же синий фил, как и мы, то милости просим на наш форум. И в заключение, попробуйте зарегистрироваться, ведь не так это и сложно и займет всего лишь пару минут! Вот увидите, Вам у нас понравится и Вы вольетесь в наш дружный коллектив! Ну а пока - осматривайтесь = )
Мы рады Вам !





В петле / In the Loop (2009) BDRip-AVC

Оформил: KalliostroV | 28 мая 2010 - 22:26:19 | Обращений: 1764 {bookmarks_news}

http//img.hqclub.net/boxes/logo299060_box.jpg

Информация о фильме
Название: В петле
Оригинальное название: In the Loop
Год выхода: 2009
Жанр: комедия, политический
Режиссер: Армандо Яннуччи / Armando Iannucci
В ролях: Питер Капальди /Peter Capaldi/, Том Холландер /Tom Hollander/, Джина МакКи /Gina McKee/, Джеймс Гандольфини /James Gandolfini/, Крис Эддисон /Chris Addison/, Анна Кламски /Anna Chlumsky/, Энцо Чиленти /Enzo Cilenti/, Пол Хиггинс /Paul Higgins/, Мими Кеннеди /Mimi Kennedy/, Алекс Маккуин /Alex Macqueen/, Джонни Пэмбертон /Johnny Pemberton/, Оливия Пуле /Olivia Poulet/, Дэвид Раш /David Rasche/

О фильме:
Министр Великобритании по международному развитию обмолвился в интервью, что войны на Ближнем Востоке не предвидится, и, тем самым, обратил на себя внимание двух противоборствующих лагерей государственного департамента США. Министр Саймон Фостер при незначительном министерском портфеле и мягкотелом характере становится удобным чучелом международного прикрытия внутренних американских интересов. Мудрым наставником министра выступает Малколм Такер, помощник британского премьера, списанный с настоящего помощника по связям с общественностью, Алистера Кэмпбелла. Сюжет фильма проходит чередой мелких бытовых шалостей от одного высказывания до решающей битвы в ООН.

User Rating: 7.255/10 (251 votes)
Imdb: 7.6/10 ( 11,815 votes)

Релиз от - http//hqclub.net/images/hqclub.png
Автор рипа: chopper887

Выпущено: Великобритания
Продолжительность: 01:47:27
Перевод: Авторский одноголосый Юрий Сербин + Авторский одноголосый Михаил Чадов + Оригинальная звуковая дорожка
Субтитры: Русские, английские (srt*)

Файл:
Формат: mkv
Качество: BDRip-AVC (источник: Blu-ray Disc / 1080p)
Видео: 1024x560 (2.35:1), 23,976 fps, 2635 kbps avg
Аудио #1: 48 kHz, AC3 Dolby Digital, 3/2 (L,C,R,l,r) + LFE ch, ~448.00 kbps avg
Аудио #2: 48 kHz, AC3 Dolby Digital, 3/2 (L,C,R,l,r) + LFE ch, ~384.00 kbps avg
Аудио #3: 48 kHz, AC3 Dolby Digital, 3/2 (L,C,R,l,r) + LFE ch, ~448.00 kbps avg
Размер: 2971.69 Mb (2/3 DVD-R)
Скачать: Семпл

"MediaInfo"

General
Complete name : F:\V.petle.chopper887.mkv
Format : Matroska
File size : 2.89 GiB
Duration : 1h 45mn
Overall bit rate : 3 915 Kbps
Movie name : chopper887
Encoded date : UTC 2010-05-26 18:17:53
Writing application : mkvmerge v3.0.0 ('Hang up your Hang-Ups') built on Dec 12 2009 15:20:35
Writing library : libebml v0.7.9 + libmatroska v0.8.1

Video
ID : 1
Format : AVC
Format/Info : Advanced Video Codec
Format profile : High@L4.1
Format settings, CABAC : Yes
Format settings, ReFrames : 9 frames
Muxing mode : Container profile=Unknown@4.1
Codec ID : V_MPEG4/ISO/AVC
Duration : 1h 45mn
Bit rate : 2 635 Kbps
Width : 1 024 pixels
Height : 560 pixels
Display aspect ratio : 16:9
Frame rate : 23.976 fps
Color space : YUV
Chroma subsampling : 4:2:0
Bit depth : 8 bits
Scan type : Progressive
Bits/(Pixel*Frame) : 0.192
Stream size : 1.89 GiB (65%)
Title : chopper887
Writing library : x264 core 95 r1592 95aacc4
Encoding settings : cabac=1 / ref=9 / deblock=1:-2:-1 / analyse=0x3:0x133 / me=umh / subme=9 / psy=1 / psy_rd=1.00:0.10 / mixed_ref=1 / me_range=32 / chroma_me=1 / trellis=2 / 8x8dct=1 / cqm=0 / deadzone=21,11 / fast_pskip=0 / chroma_qp_offset=-3 / threads=3 / sliced_threads=0 / nr=0 / decimate=1 / interlaced=0 / constrained_intra=0 / bframes=10 / b_pyramid=2 / b_adapt=2 / b_bias=0 / direct=1 / weightb=1 / weightp=2 / keyint=250 / keyint_min=25 / scenecut=40 / intra_refresh=0 / rc_lookahead=60 / rc=2pass / mbtree=1 / bitrate=2635 / ratetol=1.0 / qcomp=0.60 / qpmin=10 / qpmax=51 / qpstep=4 / cplxblur=20.0 / qblur=0.5 / ip_ratio=1.40 / aq=1:1.00
Language : English

Audio #1
ID : 2
Format : AC-3
Format/Info : Audio Coding 3
Mode extension : CM (complete main)
Codec ID : A_AC3
Duration : 1h 45mn
Bit rate mode : Constant
Bit rate : 448 Kbps
Channel(s) : 6 channels
Channel positions : Front: L C R, Side: L R, LFE
Sampling rate : 48.0 KHz
Stream size : 339 MiB (11%)
Title : Сербин

Audio #2
ID : 3
Format : AC-3
Format/Info : Audio Coding 3
Mode extension : CM (complete main)
Codec ID : A_AC3
Duration : 1h 45mn
Bit rate mode : Constant
Bit rate : 384 Kbps
Channel(s) : 6 channels
Channel positions : Front: L C R, Side: L R, LFE
Sampling rate : 48.0 KHz
Stream size : 291 MiB (10%)
Title : Чадов

Audio #3
ID : 4
Format : AC-3
Format/Info : Audio Coding 3
Mode extension : CM (complete main)
Codec ID : A_AC3
Duration : 1h 45mn
Bit rate mode : Constant
Bit rate : 448 Kbps
Channel(s) : 6 channels
Channel positions : Front: L C R, Side: L R, LFE
Sampling rate : 48.0 KHz
Stream size : 339 MiB (11%)
Title : Английский

Text #1
ID : 5
Format : UTF-8
Codec ID : S_TEXT/UTF8
Codec ID/Info : UTF-8 Plain Text
Title : русские

Text #2
ID : 6
Format : UTF-8
Codec ID : S_TEXT/UTF8
Codec ID/Info : UTF-8 Plain Text
Title : английские


"Cравнение с исходником"

http//i5.fastpic.ru/thumb/2010/0528/27/8595e44b9240968e52f10c46b43927.jpeg http//i5.fastpic.ru/thumb/2010/0528/2a/0765f35d3ac8f105967fd1b3626e8b2a.jpeg http//i5.fastpic.ru/thumb/2010/0528/5c/5e5b4fe78273ac05c9bcc396363e5c.jpeg http//i5.fastpic.ru/thumb/2010/0528/5c/14d41f34255a30debf4456b546d7765c.jpeg http//i5.fastpic.ru/thumb/2010/0528/1f/8e268ba8ed652133f60cbe894098381f.jpeg http//i5.fastpic.ru/thumb/2010/0528/35/0cd3774f86d70043af3413dcb0eb35.jpeg http//i5.fastpic.ru/thumb/2010/0528/5e/733ef8e43bb26f6ed29df631268e5e.jpeg http//i5.fastpic.ru/thumb/2010/0528/17/7541ce3dcd81eac09c68c2e55af03717.jpeg http//i5.fastpic.ru/thumb/2010/0528/d1/6932c7a1c5888938d8fd153fd62471d1.jpeg http//i5.fastpic.ru/thumb/2010/0528/3c/32deae360a19bafaf4b51d4b8b78913c.jpeg http//i5.fastpic.ru/thumb/2010/0528/95/55bd0e98c6c5812fc2c13d2444bd7d95.jpeg
Ссылки для скачивания:

http//s52.radikal.ru/i136/0912/4f/9271076c3e7b.png Торрент: В петле / In the Loop (2009) BDRip-AVC

Лучшая онлайн игра!


Публикация материалов сайта на сторонних ресурсах возможна только в неизменном виде.


Обсудить релиз на форуме

Вас также может заинтересовать:


  • 4
 (Голосов: 1)


Распечатать новость на принтере Комедия