Вас Приветствует Релиз-группа HQCLUB


Помощь ресурсу, очень ВАЖНО!!!



.


WELCOME
Добро пожаловать в наше интернет - сообщество!

Всех нас объединяет одна страсть - страсть к высококачественному кино. А это наш сайт. Ежедневно здесь мы публикуем десятки качественных, свежих, а порой и эксклюзивных релизов, которые Вы можете скачать совершенно бесплатно и без каких-либо регистраций. Посему рекомендуем Вам добавить HQClub себе в закладки, а также подписаться на нашу ленту новостей, чтобы всегда быть в курсе всех событий. Ну а если Вы такой же синий фил, как и мы, то милости просим на наш форум. И в заключение, попробуйте зарегистрироваться, ведь не так это и сложно и займет всего лишь пару минут! Вот увидите, Вам у нас понравится и Вы вольетесь в наш дружный коллектив! Ну а пока - осматривайтесь = )
Мы рады Вам !





Возвращение высокого блондина / The Return of the Tall Blond Man with One Black Shoe / Le retour du grand blond (1974) BDRip-AVC

Оформил: Elheym | 13 июля 2014 - 19:40:48 | Комментариев: 1 | Обращений: 696 {bookmarks_news}

http//lostpic.net/orig_images/b/3/0/b30f8d81fb75fc3fce7398bd95ce84.png

Информация о фильме:
Название: Возвращение высокого блондина
Оригинальное название: Le retour du grand blond
Год выхода: 1974
Жанр: комедия
Режиссер: Ив Робер
В ролях: Пьер Ришар, Жан Карме, Жан Рошфор, Мирей Дарк, Жан Буиз, Поль Ле Персон, Колетт Кастель, Анри Гибе, Эрве Санд, Жан Амос

О фильме: Шпионские игры продолжаются. Спецслужбы не могут оставить Перрена в покое — новый министр нашёл досье на высокого блондина, заведённое Бернаром Миланом, и следуя подсказке капитана Камбрэ, подозревающего Тулуза в фарсе с высоким блондином и убийстве Милана, приказывает полковнику Тулузу представить ему «суперагента». Тот в смятении придумывает историю о том, что блондин совсем недавно погиб при выполнении спецоперации в тропиках, но министр требует привести тело на родину для захоронения с почестями. Тулуз посылает своих людей в Рио-де-Жанейро, где Перрен живёт с Кристин, чтобы убить его.

Блондин снова уходит от опасности, ни о чём не подозревая. Тогда Тулуз со своими агентами похищает Кристин, и теперь блондин вынужден выполнять его требования — приехать в Париж и разыграть из себя суперагента перед министром, что убедило бы его прекратить расследование убийства Милана. Министр намеревается послать «суперагента» на важное и очень опасное задание. Тулуз хочет избавиться от блондина, после того, как он сыграет свою роль, так как теперь он «слишком много знает». На помощь Перрену приходит его друг Морис…

http//rating.kinopoisk.ru/70935.gif http//s.rutor.org/imdb/pic/0072080.gif

Релиз от - http//hqclub.net/images/hqclub.png
Автор рипа: Elheym

Выпущено: Франция
Продолжительность: 01:21:05
Перевод: Профессиональный (двухголосый, закадровый), Союз-Видео + Профессиональный (полное дублирование), СССР [со вставками**] + Оригинал (французский)
Субтитры: английские (полные)
Главы: присутствуют, сохранены оригинальные

Цитата:
** - Основной перевод - Русский Дубляж (времен СССР). На места, где не было перевода в дубляже, наложены друхголосые вставки.


Дополнительные аудиодорожки:
+ Профессиональный (двухголосый, закадровый) (украинский) (2+2)

Файл:
Формат: MKV
Качество: BDRip-AVC (источник: http//i28.fastpic.ru/big/2011/1013/a8/a3d28e80c9544f4c572189fc892ea8.gif / Blu-Ray Remux / 1080p)
Видео: 1024x618 (1,657:1), 24 fps, MPEG-4 AVC, ~2685 kbps avg, 0.177 bit/pixel
Аудио #1: 48 kHz, AC3 Dolby Digital, 2/0 (L,R) + LFE ch, ~192 kbps (DVO.INIS)
Аудио #2: 48 kHz, AC3 Dolby Digital, 2/0 (L,R) + LFE ch, ~192 kbps (DUB)
Аудио #3: 48 kHz, AC3 Dolby Digital, 2/0 (L,R) + LFE ch, ~192 kbps (FRE)
Аудио #4: 48 kHz, AC3 Dolby Digital, 2/0 (L,R) + LFE ch, ~192 kbps (UKR.2+2) (отдельно)
Размер: 1.84 GB
Сэмпл: скачать

http//lostpic.net/thumbs_images/e/c/f/ecf39b0ea6c96bd22110e46005d64b.png http//lostpic.net/thumbs_images/3/4/f/34fdffca683c40f720705d162bb020b5.png http//lostpic.net/thumbs_images/4/b/2/4b24aee071db2d25ea68ab35b667ca.png http//lostpic.net/thumbs_images/2/e/e/2eecdcd5eb018366eca64418ade04ab6.png http//lostpic.net/thumbs_images/9/9/3/993761c5cd651ccf965db7665469f109.png http//lostpic.net/thumbs_images/b/4/1/b4125e72bd7da3c3a216a7cfc28c50.png

"MediaInfo"

Уникальный идентификатор : 225781251322532333334266835461930665933 (0xA9DBE324CDB962A4B43B5FE47872C7CD)
Полное имя : The.Return.of.the.Tall.Blond.Man.with.One.Black.Shoe.1974.TRIPLE.BDRip-AVC.x264.AC3.-HQCLUB.mkv
Формат : Matroska
Версия формата : Version 2
Размер файла : 1,85 Гбайт
Продолжительность : 1 ч. 21 м.
Общий поток : 3263 Кбит/сек
Дата кодирования : UTC 2014-07-13 14:53:51
Программа кодирования : mkvmerge v5.2.0 ('I can't explain') built on Dec 18 2011 18:12:03
Библиотека кодирования : libebml v1.2.3 + libmatroska v1.3.0

Видео
Идентификатор : 1
Формат : AVC
Формат/Информация : Advanced Video Codec
Профиль формата : High@L4.1
Параметр CABAC формата : Да
Параметр ReFrames формата : 13 кадров
Идентификатор кодека : V_MPEG4/ISO/AVC
Продолжительность : 1 ч. 21 м.
Битрейт : 2685 Кбит/сек
Ширина : 1024 пикселя
Высота : 618 пикселей
Соотношение сторон : 1,657
Режим частоты кадров : Постоянный
Частота кадров : 24,000 кадра/сек
Цветовое пространство : YUV
Субдискретизация насыщенности : 4:2:0
Битовая глубина : 8 бит
Тип развёртки : Прогрессивная
Бит/(Пиксели*Кадры) : 0.177
Размер потока : 1,48 Гбайт (80%)
Заголовок : Возвращение высокого блондина / The Return of the Tall Blond Man with One Black Shoe / Le retour du grand blond (1974) BDRip-AVC by HQCLUB [Elheym]
Библиотека кодирования : x264 core 142 r2431 ac76440
Настройки программы : cabac=1 / ref=13 / deblock=1:-3:-2 / analyse=0x3:0x113 / me=umh / subme=11 / psy=1 / psy_rd=1.00:0.00 / mixed_ref=1 / me_range=32 / chroma_me=1 / trellis=2 / 8x8dct=1 / cqm=0 / deadzone=21,11 / fast_pskip=1 / chroma_qp_offset=-4 / threads=6 / lookahead_threads=1 / sliced_threads=0 / nr=0 / decimate=1 / interlaced=0 / bluray_compat=0 / constrained_intra=0 / bframes=10 / b_pyramid=2 / b_adapt=2 / b_bias=0 / direct=3 / weightb=1 / open_gop=0 / weightp=2 / keyint=240 / keyint_min=24 / scenecut=40 / intra_refresh=0 / rc_lookahead=40 / rc=2pass / mbtree=1 / bitrate=2685 / ratetol=1.0 / qcomp=0.60 / qpmin=10 / qpmax=69 / qpstep=4 / cplxblur=20.0 / qblur=0.5 / vbv_maxrate=50000 / vbv_bufsize=62500 / nal_hrd=none / filler=0 / ip_ratio=1.40 / aq=1:0.90
Язык : French
Default : Да
Forced : Нет

Аудио #1
Идентификатор : 2
Формат : AC-3
Формат/Информация : Audio Coding 3
Расширение режима : CM (complete main)
Параметр Endianness формата : Big
Идентификатор кодека : A_AC3
Продолжительность : 1 ч. 21 м.
Вид битрейта : Постоянный
Битрейт : 192 Кбит/сек
Каналы : 2 канала
Расположение каналов : Front: L R
Частота : 48,0 КГц
Битовая глубина : 16 бит
Метод сжатия : С потерями
Размер потока : 111 Мбайт (6%)
Заголовок : АС3 2.0 @ ~192 kbps - DVO Inis
Язык : Russian
Default : Нет
Forced : Нет

Аудио #2
Идентификатор : 3
Формат : AC-3
Формат/Информация : Audio Coding 3
Расширение режима : CM (complete main)
Параметр Endianness формата : Big
Идентификатор кодека : A_AC3
Продолжительность : 1 ч. 21 м.
Вид битрейта : Постоянный
Битрейт : 192 Кбит/сек
Каналы : 2 канала
Расположение каналов : Front: L R
Частота : 48,0 КГц
Битовая глубина : 16 бит
Метод сжатия : С потерями
Размер потока : 111 Мбайт (6%)
Заголовок : АС3 2.0 @ ~192 kbps - Dub USSR
Язык : Russian
Default : Нет
Forced : Нет

Аудио #3
Идентификатор : 4
Формат : AC-3
Формат/Информация : Audio Coding 3
Расширение режима : CM (complete main)
Параметр Endianness формата : Big
Идентификатор кодека : A_AC3
Продолжительность : 1 ч. 21 м.
Вид битрейта : Постоянный
Битрейт : 192 Кбит/сек
Каналы : 2 канала
Расположение каналов : Front: L R
Частота : 48,0 КГц
Битовая глубина : 16 бит
Метод сжатия : С потерями
Размер потока : 111 Мбайт (6%)
Заголовок : АС3 2.0 @ ~192 kbps - Original
Язык : French
Default : Нет
Forced : Нет

Текст
Идентификатор : 5
Формат : UTF-8
Идентификатор кодека : S_TEXT/UTF8
Идентификатор кодека/Информация : UTF-8 Plain Text
Заголовок : Full
Язык : English
Default : Нет
Forced : Нет

Меню
00:00:00.000 : :Chapter 01
00:06:21.375 : :Chapter 02
00:14:21.041 : :Chapter 03
00:20:19.250 : :Chapter 04
00:27:48.750 : :Chapter 05
00:34:48.291 : :Chapter 06
00:41:55.707 : :Chapter 07
00:48:22.791 : :Chapter 08
00:55:30.666 : :Chapter 09
01:03:56.875 : :Chapter 10
01:09:21.500 : :Chapter 11
01:15:07.416 : :Chapter 12
01:21:04.750 : :Chapter 13

"x264 log"

x264 [info]: frame I:909 Avg QP:15.79 size: 79996
x264 [info]: frame P:24585 Avg QP:18.74 size: 30710
x264 [info]: frame B:91267 Avg QP:21.00 size: 8816

x264 [info]: consecutive B-frames: 1.9% 2.6% 7.4% 16.4% 18.5% 41.6% 5.6% 1.5% 1.2% 1.0% 2.4%

x264 [info]: ref P L0: 41.5% 10.2% 17.8% 6.5% 5.9% 4.0% 3.9% 2.0% 2.0% 1.5% 1.6% 1.3% 1.5% 0.2% 0.0%
x264 [info]: ref B L0: 71.1% 11.9% 5.6% 3.0% 2.1% 1.9% 1.5% 0.9% 0.7% 0.7% 0.4% 0.2%
x264 [info]: ref B L1: 93.2% 6.8%


Ссылки для скачивания:

http//bt.hqclub.net/files/ok.png Торрент: Возвращение высокого блондина / The Return of the Tall Blond Man with One Black Shoe / Le retour du grand blond (1974) BDRip-AVC

Лучшая онлайн игра!


Публикация материалов сайта на сторонних ресурсах возможна только в неизменном виде.


Обсудить релиз на форуме

Вас также может заинтересовать:


  • 5
 (Голосов: 4)


Распечатать новость на принтере Комедия
Обновлено: 13.07.2014 - 21:08

КОММЕНТАРИИ

 №1. ru4lan

Статус: Кинокритик | Новостей: 0 | Комментариев: 2736
ru4lan спасибо!
~~~

17.07.2014 - 12:06   цитировать