Вас Приветствует Релиз-группа HQCLUB


Помощь ресурсу, очень ВАЖНО!!!



.


WELCOME
Добро пожаловать в наше интернет - сообщество!

Всех нас объединяет одна страсть - страсть к высококачественному кино. А это наш сайт. Ежедневно здесь мы публикуем десятки качественных, свежих, а порой и эксклюзивных релизов, которые Вы можете скачать совершенно бесплатно и без каких-либо регистраций. Посему рекомендуем Вам добавить HQClub себе в закладки, а также подписаться на нашу ленту новостей, чтобы всегда быть в курсе всех событий. Ну а если Вы такой же синий фил, как и мы, то милости просим на наш форум. И в заключение, попробуйте зарегистрироваться, ведь не так это и сложно и займет всего лишь пару минут! Вот увидите, Вам у нас понравится и Вы вольетесь в наш дружный коллектив! Ну а пока - осматривайтесь = )
Мы рады Вам !





Bon Jovi: Live at Madison Square Garden (2009) BDRip 720p

Оформил: Gellard | 18 июня 2012 - 21:06:01 | Комментариев: 2 | Обращений: 2451 {bookmarks_news}

http//lostpic.net/images/a4e6694ac6dc47444334dab1458a62.png

Информация о фильме:
Название: Bon Jovi: Live at Madison Square Garden
Год выхода: 2009
Жанр: Rock
Состав: Джон Бон Джови, Ричи Самбора, Дэвид Брайен, Тико Торрес, Хью МакДональд

Треклист:


  • Lost Highway

  • Born To Be My Baby

  • Blaze Of Glory

  • It's My Life

  • Keep The Faith

  • Raise Your Hands

  • Living In Sin/Chapel Of Love

  • Always

  • Whole Lot Of Lovin'

  • In These Arms

  • We Got It Going On

  • I'll Be There For You

  • (You Want To) Make A Memory

  • Blood On Blood

  • Dry County

  • Have A Nice Day

  • Who Says You Can't Go Home

  • Hallelujah

  • Wanted Dead Or Alive

  • Livin' On A Prayer



http//www.kinopoisk.ru/rating/3867.gif

Релиз от - http//hqclub.net/images/hqclub.png
Автор рипа: Deep Fusion

Выпущено: Великобритания
Продолжительность: 02:05:43
Субтитры: отсутствуют

Файл:
Формат: MKV
Качество: BDRip 720p (Источник: dmush / BDRemux / 1080p)
Видео: 1280x720 (1.78:1), 23.976 fps, x264@L4.1 ~8348 kbps avg, 0.378 bit/pixel
Звук #1: 48 kHz, AC3, 3/2 (L,C,R,l,r) + LFE ch, ~640.00 kbps avg (ENG)
Размер: 8245.22 Mb
Скачать: Сэмпл

http//lostpic.net/thumbs/1d96f54027619b44063a6a6fc3ed5f.png http//lostpic.net/thumbs/af694aa7119bdd0d4468ec25cf8adea8.png http//lostpic.net/thumbs/d122cc9ee29b0a94efcdcf28fb3c9e47.png http//lostpic.net/thumbs/069c33a164d6e6bd68a28da78e32d79d.png http//lostpic.net/thumbs/e291643c80277e4d6fffda669986123f.png
"MediaInfo"
Формат : Matroska
Версия формата : Version 2
Размер файла : 8,05 Гбайт
Продолжительность : 2 ч. 5 м.
Общий поток : 9170 Кбит/сек
Дата кодирования : UTC 2012-06-18 13:23:56
Программа кодирования : mkvmerge v5.5.0 ('Healer') built on Apr 6 2012 21:43:24
Библиотека кодирования : libebml v1.2.3 + libmatroska v1.3.0

Видео
Идентификатор : 1
Формат : AVC
Формат/Информация : Advanced Video Codec
Профиль формата : High@L4.1
Параметр CABAC формата : Да
Параметр ReFrames формата : 9 кадров
Идентификатор кодека : V_MPEG4/ISO/AVC
Продолжительность : 2 ч. 5 м.
Битрейт : 8348 Кбит/сек
Ширина : 1280 пикселей
Высота : 720 пикселей
Соотношение сторон : 16:9
Частота кадров : 23,976 кадра/сек
Цветовое пространство : YUV
Субдискретизация насыщенности : 4:2:0
Битовая глубина : 8 бит
Тип развёртки : Прогрессивная
Бит/(Пиксели*Кадры) : 0.378
Размер потока : 7,33 Гбайт (91%)
Заголовок : Bon Jovi: Live at Madison Square Garden (2009) BDRip 720p | HQCLUB by Deep Fusion
Библиотека кодирования : x264 core 125 r2200 999b753
Настройки программы : cabac=1 / ref=9 / deblock=1:-3:-3 / analyse=0x3:0x113 / me=umh / subme=10 / psy=1 / psy_rd=1.00:0.05 / mixed_ref=1 / me_range=32 / chroma_me=1 / trellis=2 / 8x8dct=1 / cqm=0 / deadzone=21,11 / fast_pskip=0 / chroma_qp_offset=-5 / threads=6 / lookahead_threads=1 / sliced_threads=0 / nr=0 / decimate=1 / interlaced=0 / bluray_compat=0 / constrained_intra=0 / bframes=12 / b_pyramid=2 / b_adapt=2 / b_bias=0 / direct=1 / weightb=1 / open_gop=0 / weightp=2 / keyint=240 / keyint_min=23 / scenecut=40 / intra_refresh=0 / rc_lookahead=60 / rc=crf / mbtree=0 / crf=18.0 / qcomp=0.60 / qpmin=10 / qpmax=69 / qpstep=4 / vbv_maxrate=62500 / vbv_bufsize=50000 / crf_max=0.0 / nal_hrd=none / ip_ratio=1.40 / pb_ratio=1.30 / aq=1:0.80
Язык : English
Default : Да
Forced : Нет

Аудио
Идентификатор : 2
Формат : AC-3
Формат/Информация : Audio Coding 3
Расширение режима : CM (complete main)
Параметр Endianness формата : Big
Идентификатор кодека : A_AC3
Продолжительность : 2 ч. 5 м.
Вид битрейта : Постоянный
Битрейт : 640 Кбит/сек
Каналы : 6 каналов
Расположение каналов : Front: L C R, Side: L R, LFE
Частота : 48,0 КГц
Битовая глубина : 16 бит
Метод сжатия : С потерями
Размер потока : 575 Мбайт (7%)
Заголовок : Оригинальная звуковая дорожка
Язык : English
Default : Да
Forced : Нет
"x264 log"
---[NoImage] x264 [info]: frame I:1182 Avg QP:17.64 size:138729
---[NoImage] x264 [info]: frame P:38191 Avg QP:18.68 size: 78504
---[NoImage] x264 [info]: frame B:141467 Avg QP:20.90 size: 34485
---[NoImage] x264 [info]: consecutive B-frames: 1.3% 1.5% 4.6% 29.1% 21.7% 31.1% 5.6% 2.9% 1.3% 0.3% 0.1% 0.2% 0.3%
---[NoImage] x264 [info]: mb I I16..4: 4.6% 82.4% 13.0%
---[NoImage] x264 [info]: mb P I16..4: 1.7% 24.8% 1.8% P16..4: 28.9% 26.2% 14.2% 0.0% 0.0% skip: 2.5%
---[NoImage] x264 [info]: mb B I16..4: 0.3% 2.7% 0.3% B16..8: 41.7% 19.0% 5.9% direct:13.5% skip:16.6% L0:43.1% L1:39.8% BI:17.2%
---[NoImage] x264 [info]: 8x8 transform intra:86.3% inter:66.7%
---[NoImage] x264 [info]: coded y,uvDC,uvAC intra: 91.2% 97.9% 92.9% inter: 47.2% 61.2% 35.8%
---[NoImage] x264 [info]: i16 v,h,dc,p: 62% 11% 8% 20%
---[NoImage] x264 [info]: i8 v,h,dc,ddl,ddr,vr,hd,vl,hu: 8% 7% 9% 11% 14% 13% 13% 12% 13%
---[NoImage] x264 [info]: i4 v,h,dc,ddl,ddr,vr,hd,vl,hu: 10% 7% 3% 10% 15% 15% 14% 12% 14%
---[NoImage] x264 [info]: i8c dc,h,v,p: 60% 14% 13% 12%
---[NoImage] x264 [info]: Weighted P-Frames: Y:13.1% UV:9.1%
---[NoImage] x264 [info]: ref P L0: 42.6% 10.5% 18.4% 7.6% 6.5% 4.5% 4.3% 2.6% 2.7% 0.4% 0.0%
---[NoImage] x264 [info]: ref B L0: 71.3% 12.1% 6.1% 3.7% 2.7% 2.4% 1.3% 0.5%
---[NoImage] x264 [info]: ref B L1: 93.0% 7.0%
---[NoImage] x264 [info]: kb/s:8528.21


http//bt.hqclub.net/files/ok.png Торрент: Bon Jovi: Live at Madison Square Garden (2009) BDRip 720p

Лучшая онлайн игра!


Публикация материалов сайта на сторонних ресурсах возможна только в неизменном виде.


Обсудить релиз на форуме

Вас также может заинтересовать:


  • 5
 (Голосов: 4)


Распечатать новость на принтере Концерт
Обновлено: 19.06.2012 - 20:29

КОММЕНТАРИИ

 №1. gubiniliya

Статус: Любитель | Новостей: 0 | Комментариев: 107
вот бы вы его рипнули в 2.18. Было бы круто.
~~~

18.06.2012 - 22:07   цитировать  

 №2. zeffc63

Статус: Кинокритик | Новостей: 0 | Комментариев: 1096
zeffc63 Сделайте плиииз в AVI.. ПРОСИМ!!!
~~~

19.06.2012 - 02:26   цитировать