Вас Приветствует Релиз-группа HQCLUB


Помощь ресурсу, очень ВАЖНО!!!



.


WELCOME
Добро пожаловать в наше интернет - сообщество!

Всех нас объединяет одна страсть - страсть к высококачественному кино. А это наш сайт. Ежедневно здесь мы публикуем десятки качественных, свежих, а порой и эксклюзивных релизов, которые Вы можете скачать совершенно бесплатно и без каких-либо регистраций. Посему рекомендуем Вам добавить HQClub себе в закладки, а также подписаться на нашу ленту новостей, чтобы всегда быть в курсе всех событий. Ну а если Вы такой же синий фил, как и мы, то милости просим на наш форум. И в заключение, попробуйте зарегистрироваться, ведь не так это и сложно и займет всего лишь пару минут! Вот увидите, Вам у нас понравится и Вы вольетесь в наш дружный коллектив! Ну а пока - осматривайтесь = )
Мы рады Вам !





Линкольн для адвоката / The Lincoln Lawyer (2011) 720p BDRip

Оформил: DaniLch | 25 августа 2011 - 17:56:47 | Комментариев: 3 | Обращений: 3072 {bookmarks_news}

http//lostpic.net/images/a188e090100d7bfe4ca16cb8ed99175f.png

Название: Линкольн для адвоката
Оригинальное название: The Lincoln Lawyer
Год выхода: 2011
Жанр: криминал, драма, триллер
Режиссер: Брэд Фурман / Brad Furman
В ролях: Мэттью МакКонахи, Мариса Томей, Райан Филипп, Уильям Х. Мэйси, Джош Лукас, Джон Легуизамо, Майкл Пенья, Боб Гантон, Фрэнсис Фишер, Брайан Крэнстон

О фильме: Микки Холлер — блестящий и удачливый адвокат из Лос-Анджелеса, чей яркий имидж и образ жизни отлично дополняет его любимая машина «Линкольн». Очередное дело — нападение богатого клиента Луи Руле на проститутку сначала казалось легким, и он без труда добился оправдательного приговора для подзащитного. Но вскоре Микки понимает, что его клиент скрывает правду. Пока Холлер пытается вывести Руле на чистую воду, его подставляют по-крупному, и теперь уже угроза тюремного заключения нависает над самим Холлером.

http//www.kinopoisk.ru/rating/461939.gif

Релиз от - http//hqclub.net/images/hqclub.png
Автор релиза: DaniLch

Выпущено: http//lostpic.net/images/ac5cb4a618da65239cf7be53b9ab78.gif США | Lionsgate
Продолжительность: 01:58:28

Источник: BD-Remux 1080p [US] by HANSMER
Контейнер: MKV
Видео: 1280x544 (2.35:1), 23.976 fps, x264@L4.1, crf, ~4482 kbps
Аудио #1: Russian: 48 kHz/16-bit, DTS, 3/2 (L,C,R,l,r) + LFE ch, ~1536 kbps |Дубляж, Blu-ray RUS|
Аудио #2: Russian: 48 kHz/24-bit, DTS, 3/2 (L,C,R,l,r) + LFE ch, ~768 kbps |Одноголосый закадровый, А.Гаврилов|
Аудио #3: English: 48 kHz/24-bit, DTS, 3/2 (L,C,R,l,r) + LFE ch, ~1536 kbps
Субтитры: русские, английские
Размер: 6.97 Gb

http//lostpic.net/thumbs/ea45126a2d23c0a65256cb94108df2.png http//lostpic.net/thumbs/2e374f96776564ca28ba18e1dc0b4aa1.png http//lostpic.net/thumbs/dd5cd76d14594e9a8e880732f603b96f.png http//lostpic.net/thumbs/cde40aea1a27d74da476ef2f1c2d6652.png
http//lostpic.net/thumbs/d965cca6ef81073edb235608d628db.png http//lostpic.net/thumbs/e447a93f9707ba99ae2ac94fe79da431.png http//lostpic.net/thumbs/bee2ffdf4421e2c1d7c992cd8e58034e.png http//lostpic.net/thumbs/944664091bbdefe24dc58b0ca07a9e64.png

http//bt.hqclub.net/files/ok.png Торрент: Линкольн для адвоката / The Lincoln Lawyer (2011) 720p BDRip

MediaInfo
General
Complete name : The.Lincoln.Lawyer.2011.BDRip.720p.H264.DTS.-HQCLUB.mkv
Format : Matroska
File size : 6.97 GiB
Duration : 1h 58mn
Overall bit rate : 8 423 Kbps
Movie name : 720p BDRip by DaniLch
Encoded date : UTC 2011-08-24 11:18:55
Writing application : mkvmerge v4.9.1 ('Ich will') built on Jul 11 2011 23:53:15
Writing library : libebml v1.2.1 + libmatroska v1.1.1

Video
ID : 1
Format : AVC
Format/Info : Advanced Video Codec
Format profile : High@L4.1
Format settings, CABAC : Yes
Format settings, ReFrames : 11 frames
Codec ID : V_MPEG4/ISO/AVC
Duration : 1h 58mn
Bit rate : 4 482 Kbps
Width : 1 280 pixels
Height : 544 pixels
Display aspect ratio : 2.35:1
Frame rate : 23.976 fps
Color space : YUV
Chroma subsampling : 4:2:0
Bit depth : 8 bits
Scan type : Progressive
Bits/(Pixel*Frame) : 0.268
Stream size : 3.71 GiB (53%)
Title : The Lincoln Lawyer (2011) 720p BDRip
Writing library : x264 core 115 r1995 c1e60b9
Encoding settings : cabac=1 / ref=11 / deblock=1:-3:-3 / analyse=0x3:0x113 / me=umh / subme=10 / psy=1 / psy_rd=0.95:0.10 / mixed_ref=1 / me_range=32 / chroma_me=1 / trellis=2 / 8x8dct=1 / cqm=0 / deadzone=21,11 / fast_pskip=0 / chroma_qp_offset=0 / threads=6 / sliced_threads=0 / nr=0 / decimate=1 / interlaced=0 / bluray_compat=0 / constrained_intra=0 / bframes=6 / b_pyramid=2 / b_adapt=2 / b_bias=0 / direct=3 / weightb=1 / open_gop=0 / weightp=2 / keyint=250 / keyint_min=23 / scenecut=40 / intra_refresh=0 / rc_lookahead=40 / rc=crf / mbtree=0 / crf=15.3 / qcomp=0.60 / qpmin=10 / qpmax=51 / qpstep=4 / vbv_maxrate=50000 / vbv_bufsize=62500 / crf_max=0.0 / nal_hrd=none / ip_ratio=1.40 / pb_ratio=1.30 / aq=1:0.80
Language : English

Audio #1
ID : 2
Format : DTS
Format/Info : Digital Theater Systems
Codec ID : A_DTS
Duration : 1h 58mn
Bit rate mode : Constant
Bit rate : 1 510 Kbps
Channel(s) : 6 channels
Channel positions : Front: L C R, Side: L R, LFE
Sampling rate : 48.0 KHz
Bit depth : 16 bits
Compression mode : Lossy
Stream size : 1.25 GiB (18%)
Title : DTS 5.1 @ 1536 kbps - Дубляж
Language : Russian

Audio #2
ID : 3
Format : DTS
Format/Info : Digital Theater Systems
Codec ID : A_DTS
Duration : 1h 58mn
Bit rate mode : Constant
Bit rate : 755 Kbps
Channel(s) : 6 channels
Channel positions : Front: L C R, Side: L R, LFE
Sampling rate : 48.0 KHz
Bit depth : 24 bits
Compression mode : Lossy
Stream size : 639 MiB (9%)
Title : DTS 5.1 @ 768 kbps - Одноголосый закадровый, А.Гаврилов
Language : Russian

Audio #3
ID : 4
Format : DTS
Format/Info : Digital Theater Systems
Codec ID : A_DTS
Duration : 1h 58mn
Bit rate mode : Constant
Bit rate : 1 510 Kbps
Channel(s) : 6 channels
Channel positions : Front: L C R, Side: L R, LFE
Sampling rate : 48.0 KHz
Bit depth : 24 bits
Compression mode : Lossy
Stream size : 1.25 GiB (18%)
Title : DTS 5.1 @ 1536 kbps
Language : English

Text #1
ID : 5
Format : UTF-8
Codec ID : S_TEXT/UTF8
Codec ID/Info : UTF-8 Plain Text
Language : Russian

Text #2
ID : 6
Format : UTF-8
Codec ID : S_TEXT/UTF8
Codec ID/Info : UTF-8 Plain Text
Language : English

Menu
00:00:00.000 : en:Something Big
00:05:07.015 : en:Get Paid
00:16:50.051 : en:Something New
00:20:06.205 : en:What Happened?
00:30:21.987 : en:Security Camera
00:38:23.343 : en:Catching Up
00:48:25.152 : en:Make It Right
00:55:07.221 : en:Dangerous Place
00:59:10.255 : en:Predator
01:03:16.626 : en:Break In The Case
01:09:03.931 : en:Defense Theory
01:15:28.858 : en:Witness Testimony
01:23:21.455 : en:Taking The Stand
01:29:44.045 : en:Snitch
01:37:34.140 : en:New Lawyer
01:50:00.344 : en:Repeat Customers

Цитата:
- За дорожку #2 спасибо Goldtwait.
- Перевод А. Гаврилова стал доступен благодаря BKSs, dunhill200, lexal2002, Chistobaev, Джосс, Pain_70, bond-street, pestel, audiolubitel, Fess Necromant, alent1204, Nort1989, ОлегКиев, edsz, therox, за что им большое спасибо.


Лучшая онлайн игра!


Публикация материалов сайта на сторонних ресурсах возможна только в неизменном виде.


Обсудить релиз на форуме

Вас также может заинтересовать:


  • 3
 (Голосов: 17)


Распечатать новость на принтере Криминал, Драма, Триллер

КОММЕНТАРИИ

 №1. bedoff

Статус: Новичок | Новостей: 0 | Комментариев: 2
bedoff DaniLch, спасибо, фильм хорош ay
~~~

25.08.2011 - 23:21   цитировать  

 №2. Marshall Mathers

Статус: Кинокритик | Новостей: 0 | Комментариев: 468
Marshall Mathers Фильм не понравился, слишком нудный...
~~~

28.08.2011 - 01:14   цитировать  

 №3. Aleks5

Статус: Новичок | Новостей: 0 | Комментариев: 13
Aleks5 Фильм отличный !!! ay
~~~

29.08.2011 - 19:18   цитировать