Вас Приветствует Релиз-группа HQCLUB


Помощь ресурсу, очень ВАЖНО!!!



.


WELCOME
Добро пожаловать в наше интернет - сообщество!

Всех нас объединяет одна страсть - страсть к высококачественному кино. А это наш сайт. Ежедневно здесь мы публикуем десятки качественных, свежих, а порой и эксклюзивных релизов, которые Вы можете скачать совершенно бесплатно и без каких-либо регистраций. Посему рекомендуем Вам добавить HQClub себе в закладки, а также подписаться на нашу ленту новостей, чтобы всегда быть в курсе всех событий. Ну а если Вы такой же синий фил, как и мы, то милости просим на наш форум. И в заключение, попробуйте зарегистрироваться, ведь не так это и сложно и займет всего лишь пару минут! Вот увидите, Вам у нас понравится и Вы вольетесь в наш дружный коллектив! Ну а пока - осматривайтесь = )
Мы рады Вам !





Ты – яд / Night Is Not for Sleep / Toi... le venin (1958) BDRip-AVC

Оформил: Elheym | 13 марта 2015 - 18:21:18 | Комментариев: 3 | Обращений: 548 {bookmarks_news}

http//lostpic.net/orig_images/1/f/7/1f7cfbbb11b83d9e1bb61b12708c813a.jpg

Информация о фильме:
Название: Ты – яд
Оригинальное название: Toi, le venin
Год выхода: 1958
Жанр: детектив
Режиссер: Робер Оссейн / Robert Hossein
В ролях: Робер Оссейн, Марина Влади, Одиль Версуа, Элена Мансон, Анри Кремьё, Паскаль Маззотти, Анри Ариюс, Шарль Блаветт, Люсьен Калламан, Изола Блонди

О фильме: Загадочное ночное происшествие вынуждает Пьера Менда предпринять собственное расследование. Следы ведут в дом к двум женщинам - сестрам.

«A new and very STARTLING approach to mystery on the screen.»



http//rating.kinopoisk.ru/140326.gif http//tracker.0day.kiev.ua/imdb/imdb_tt0054131.gif

Релиз от - http//hqclub.net/images/hqclub.png
Автор рипа: Elheym

Выпущено: Франция, Италия, Champs-Élysées Productions, Filmauro (II)
Продолжительность: 01:32:31
Перевод 1: Авторский (одноголосый, закадровый) Р. Янкелевич
Перевод 2: Одноголосый (закадровый) А. Матвеев aka Doctor_Joker
Оригинальная аудиодорожка: французская
Субтитры: русские (полные)
Главы: присутствуют, сохранены оригинальные

Дополнительные аудиодорожки:
+ Одноголосый (закадровый) А. Матвеев aka Doctor_Joker

Файл:
Формат: MKV
Качество: BDRip-AVC (источник: http//i28.fastpic.ru/big/2011/1013/a8/a3d28e80c9544f4c572189fc892ea8.gif / Blu-ray Remux / 1080p)
Видео: 1072x646 (1.66:1), 24.0 fps, MPEG-4 AVC, ~3500 kbps avg, 0.211 bit/pixel
Аудио #1: 48 kHz, AC3 Dolby Digital, 2/0 (L,R) ch, ~192 kbps avg (AVO.JANKELEVICH)
Аудио #2: 48 kHz, AC3 Dolby Digital, 2/0 (L,R) ch, ~384 kbps avg (FRE)
Аудио #3: 48 kHz, AC3 Dolby Digital, 2/0 (L,R) ch, ~192 kbps avg (VO.MATVEEV) (отдельно)
Размер: 2.63 GB
Сэмпл: скачать

http//lostpic.net/thumbs_images/8/2/3/8238de1a43b5f5f500e083be73bd2f9b.png http//lostpic.net/thumbs_images/2/c/3/2c30b4bf86b4db5bcef7d7b84d8e9b.png http//lostpic.net/thumbs_images/b/c/b/bcb61669da18ff44a02a8f1386114ac0.png http//lostpic.net/thumbs_images/6/8/6/6868ed2b844739be9e82ea06850567.png http//lostpic.net/thumbs_images/d/d/0/dd0ca2727c9a559f3212c69dd23e7a65.png http//lostpic.net/thumbs_images/7/6/1/761199405dbb34a77b93231f55ddf327.png

"MediaInfo"

Уникальный идентификатор : 221954978174168344977853183704602990453 (0xA6FAF950033675AE9C6A05E7ECA75775)
Полное имя : Night.Is.Not.for.Sleep.1958.DUAL.BDRip-AVC.x264.AC3.-HQCLUB.mkv
Формат : Matroska
Версия формата : Version 2
Размер файла : 2,64 Гбайт
Продолжительность : 1 ч. 32 м.
Общий поток : 4079 Кбит/сек
Дата кодирования : UTC 2015-03-13 18:28:10
Программа кодирования : mkvmerge v5.2.0 ('I can't explain') built on Dec 18 2011 18:12:03
Библиотека кодирования : libebml v1.2.3 + libmatroska v1.3.0
Attachements : Cover.png

Видео
Идентификатор : 1
Формат : AVC
Формат/Информация : Advanced Video Codec
Профиль формата : High@L4.0
Параметр CABAC формата : Да
Параметр ReFrames формата : 10 кадров
Идентификатор кодека : V_MPEG4/ISO/AVC
Продолжительность : 1 ч. 32 м.
Битрейт : 3500 Кбит/сек
Ширина : 1072 пикселя
Высота : 646 пикселей
Соотношение сторон : 1,659
Режим частоты кадров : Постоянный
Частота кадров : 24,000 кадра/сек
Цветовое пространство : YUV
Субдискретизация насыщенности : 4:2:0
Битовая глубина : 8 бит
Тип развёртки : Прогрессивная
Бит/(Пиксели*Кадры) : 0.211
Размер потока : 2,21 Гбайт (84%)
Заголовок : Ты – яд / Night Is Not for Sleep / Toi... le venin (1958) BDRip-AVC by HQCLUB [Elheym]
Библиотека кодирования : x264 core 142 r2431+42 c69a006 tMod [8-bit@all X86_64]
Настройки программы : cabac=1 / ref=10 / deblock=1:-2:-1 / analyse=0x3:0x113 / me=tesa / subme=11 / psy=1 / fade_compensate=0.00 / psy_rd=0.95:0.00 / mixed_ref=1 / me_range=24 / chroma_me=1 / trellis=2 / 8x8dct=1 / cqm=0 / deadzone=21,11 / fast_pskip=1 / chroma_qp_offset=-2 / threads=6 / lookahead_threads=1 / sliced_threads=0 / nr=0 / decimate=1 / interlaced=0 / bluray_compat=0 / constrained_intra=0 / fgo=0 / bframes=16 / b_pyramid=2 / b_adapt=2 / b_bias=0 / direct=3 / weightb=1 / open_gop=0 / weightp=2 / keyint=230 / keyint_min=23 / scenecut=40 / intra_refresh=0 / rc_lookahead=80 / rc=2pass / mbtree=0 / bitrate=3500 / ratetol=1.0 / qcomp=0.80 / qpmin=0:0:0 / qpmax=69:69:69 / qpstep=4 / cplxblur=20.0 / qblur=0.5 / vbv_maxrate=20000 / vbv_bufsize=25000 / nal_hrd=none / filler=0 / ip_ratio=1.40 / pb_ratio=1.30 / aq=2:0.15 / aq-sensitivity=10.00 / aq-factor=1.00:1.00:1.00 / aq2=0 / aq3=0
Язык : French
Default : Да
Forced : Нет

Аудио #1
Идентификатор : 2
Формат : AC-3
Формат/Информация : Audio Coding 3
Расширение режима : CM (complete main)
Параметр Endianness формата : Big
Идентификатор кодека : A_AC3
Продолжительность : 1 ч. 32 м.
Вид битрейта : Постоянный
Битрейт : 192 Кбит/сек
Каналы : 2 канала
Расположение каналов : Front: L R
Частота : 48,0 КГц
Битовая глубина : 16 бит
Метод сжатия : С потерями
Размер потока : 127 Мбайт (5%)
Заголовок : АС3 2.0 @ 192 kbps - AVO, JAnkelevich
Язык : Russian
Default : Нет
Forced : Нет

Аудио #2
Идентификатор : 3
Формат : AC-3
Формат/Информация : Audio Coding 3
Расширение режима : CM (complete main)
Параметр Endianness формата : Big
Идентификатор кодека : A_AC3
Продолжительность : 1 ч. 32 м.
Вид битрейта : Постоянный
Битрейт : 384 Кбит/сек
Каналы : 2 канала
Расположение каналов : Front: L R
Частота : 48,0 КГц
Битовая глубина : 16 бит
Метод сжатия : С потерями
Размер потока : 254 Мбайт (9%)
Заголовок : АС3 2.0 @ 384 kbps - Original
Язык : French
Default : Нет
Forced : Нет

Текст
Идентификатор : 4
Формат : UTF-8
Идентификатор кодека : S_TEXT/UTF8
Идентификатор кодека/Информация : UTF-8 Plain Text
Заголовок : Full [sekassir]
Язык : Russian
Default : Нет
Forced : Нет

Меню
00:00:00.000 : :Chapter 01
00:07:55.000 : :Chapter 02
00:16:51.500 : :Chapter 03
00:22:44.250 : :Chapter 04
00:33:09.708 : :Chapter 05
00:38:50.957 : :Chapter 06
00:47:18.207 : :Chapter 07
00:54:33.791 : :Chapter 08
01:01:08.541 : :Chapter 09
01:10:27.916 : :Chapter 10
01:17:13.500 : :Chapter 11
01:26:30.000 : :Chapter 12
01:32:30.750 : :Chapter 13

"x264 log"

x264 [info]: frame I:760 Avg QP:17.93 size: 83975
x264 [info]: frame P:27420 Avg QP:20.57 size: 36073
x264 [info]: frame B:105036 Avg QP:22.56 size: 13098

x264 [info]: consecutive B-frames: 1.6% 2.3% 5.9% 17.4% 16.9% 39.6% 8.5% 4.1% 2.0% 0.8% 0.3% 0.2% 0.1% 0.0% 0.0% 0.1% 0.1%

x264 [info]: ref P L0: 40.1% 13.3% 17.9% 6.8% 6.2% 4.4% 4.4% 2.2% 2.4% 2.1% 0.5% 0.0%
x264 [info]: ref B L0: 70.4% 12.6% 6.2% 3.4% 2.4% 2.2% 1.7% 0.7% 0.3%
x264 [info]: ref B L1: 93.3% 6.7%


Цитата:

Перевод субтитров - sekassir.
Исходный диск приобретен в рамках сервиса "Копилка". Спонсоры: RAUL, gorme, SSurfer, gelom, igorlit, spangr, Alex_Cabbage, Nike997, iga60, Racoon, AndyCher, arka, hda, chplintik13, maxiboo, mtk99, Luka69, _astarot_, FoggyDew, irrlicht.
Синхронизация авторского перевода - Elheym.


Ссылки для скачивания:

http//bt.hqclub.net/files/ok.png Торрент: Ты – яд / Night Is Not for Sleep / Toi... le venin (1958) BDRip-AVC

Лучшая онлайн игра!


Публикация материалов сайта на сторонних ресурсах возможна только в неизменном виде.


Обсудить релиз на форуме

Вас также может заинтересовать:


  • 0
 (Голосов: 0)


Распечатать новость на принтере Детектив
Обновлено: 13.03.2015 - 22:39

КОММЕНТАРИИ

 №1. Elheym

Статус: Стажер | Новостей: 320 | Комментариев: 70
Торрент перезалит. Перевод заменен на авторский.
~~~

13.03.2015 - 22:44   цитировать  

 №2. ru4lan

Статус: Кинокритик | Новостей: 0 | Комментариев: 2736
ru4lan спасибо за матроску
~~~

14.03.2015 - 09:29   цитировать  

 №3. zeffc63

Статус: Кинокритик | Новостей: 0 | Комментариев: 1096
zeffc63 ru4lan Странный у вас скус, это Ванька со слободки орет :)
~~~

15.03.2015 - 14:33   цитировать