Вас Приветствует Релиз-группа HQCLUB


Помощь ресурсу, очень ВАЖНО!!!



.


WELCOME
Добро пожаловать в наше интернет - сообщество!

Всех нас объединяет одна страсть - страсть к высококачественному кино. А это наш сайт. Ежедневно здесь мы публикуем десятки качественных, свежих, а порой и эксклюзивных релизов, которые Вы можете скачать совершенно бесплатно и без каких-либо регистраций. Посему рекомендуем Вам добавить HQClub себе в закладки, а также подписаться на нашу ленту новостей, чтобы всегда быть в курсе всех событий. Ну а если Вы такой же синий фил, как и мы, то милости просим на наш форум. И в заключение, попробуйте зарегистрироваться, ведь не так это и сложно и займет всего лишь пару минут! Вот увидите, Вам у нас понравится и Вы вольетесь в наш дружный коллектив! Ну а пока - осматривайтесь = )
Мы рады Вам !





Ты – яд / Night Is Not for Sleep / Toi... le venin (1958) BDRip 1080p

Оформил: Elheym | 16 марта 2015 - 19:05:44 | Комментариев: 1 | Обращений: 463 {bookmarks_news}

http//lostpic.net/orig_images/1/f/7/1f7cfbbb11b83d9e1bb61b12708c813a.jpg

Информация о фильме:
Название: Ты – яд
Оригинальное название: Toi, le venin
Год выхода: 1958
Жанр: детектив
Режиссер: Робер Оссейн / Robert Hossein
В ролях: Робер Оссейн, Марина Влади, Одиль Версуа, Элена Мансон, Анри Кремьё, Паскаль Маззотти, Анри Ариюс, Шарль Блаветт, Люсьен Калламан, Изола Блонди

О фильме: Загадочное ночное происшествие вынуждает Пьера Менда предпринять собственное расследование. Следы ведут в дом к двум женщинам - сестрам.

«A new and very STARTLING approach to mystery on the screen.»



http//rating.kinopoisk.ru/140326.gif http//tracker.0day.kiev.ua/imdb/imdb_tt0054131.gif

Релиз от - http//hqclub.net/images/hqclub.png
Автор рипа: Elheym

Выпущено: Франция, Италия, Champs-Élysées Productions, Filmauro (II)
Продолжительность: 01:32:31
Перевод 1: Авторский (одноголосый, закадровый) Р. Янкилевич
Перевод 2: Одноголосый (закадровый) А. Матвеев aka Doctor_Joker
Оригинальная аудиодорожка: французская
Субтитры: русские (полные), французские (полные)
Главы: присутствуют, сохранены оригинальные

Файл:
Формат: MKV
Качество: BDRip 1080p (источник: http//hdclub.org/dox/sitebutton_tracker.hdclub.com.ua1.gif / Blu-ray Remux / 1080p)
Видео: 1792x1080 (1.66:1), 24.0 fps, MPEG-4 AVC, ~16550 kbps avg, 0.356 bit/pixel
Аудио #1: 48 kHz, AC3 Dolby Digital, 2/0 (L,R) ch, ~192 kbps avg (AVO.JANKILEVICH)
Аудио #2: 48 kHz, DTS, 2/0 (L,R) ch, ~768 kbps avg (VO.MATVEEV)
Аудио #3: 48 kHz, DTS, 2/0 (L,R) ch, ~768 kbps avg (FRE)
Размер: 11.8 GB
Сэмпл: скачать

http//lostpic.net/thumbs_images/9/e/b/9ebc1fbd7a0e25410e3311b71fbe097a.png http//lostpic.net/thumbs_images/7/3/7/7379227ad79fcd1dc51d7cc07d9f71.png http//lostpic.net/thumbs_images/2/f/a/2fa511ff99f66143651d266f6ec0d410.png http//lostpic.net/thumbs_images/3/c/5/3c55e5e4d5619c7aaa0096f66da8de.png http//lostpic.net/thumbs_images/4/3/4/434299a8e7e7111bb1cbbe96775b.png

"MediaInfo"

Уникальный идентификатор : 248257264978240166902150380144013325442 (0xBAC49C2C74700186B8FE8AD11F47B482)
Полное имя : Toi.le.venin.1958.1080p.BluRay.2xRus.Fre.-HQCLUB.mkv
Формат : Matroska
Версия формата : Version 2
Размер файла : 11,8 Гбайт
Продолжительность : 1 ч. 32 м.
Общий поток : 18,3 Мбит/сек
Дата кодирования : UTC 2015-03-18 12:50:52
Программа кодирования : mkvmerge v5.2.0 ('I can't explain') built on Dec 18 2011 18:12:03
Библиотека кодирования : libebml v1.2.3 + libmatroska v1.3.0
Attachements : Cover.png

Видео
Идентификатор : 1
Формат : AVC
Формат/Информация : Advanced Video Codec
Профиль формата : High@L4.1
Параметр CABAC формата : Да
Параметр ReFrames формата : 4 кадра
Идентификатор кодека : V_MPEG4/ISO/AVC
Продолжительность : 1 ч. 32 м.
Битрейт : 16,5 Мбит/сек
Ширина : 1792 пикселя
Высота : 1080 пикселей
Соотношение сторон : 1,659
Режим частоты кадров : Постоянный
Частота кадров : 24,000 кадра/сек
Цветовое пространство : YUV
Субдискретизация насыщенности : 4:2:0
Битовая глубина : 8 бит
Тип развёртки : Прогрессивная
Бит/(Пиксели*Кадры) : 0.356
Размер потока : 10,5 Гбайт (89%)
Заголовок : Ты – яд / Night Is Not for Sleep / Toi... le venin (1958) BDRip 1080p by HQCLUB [Elheym]
Библиотека кодирования : x264 core 142 r2431+42 c69a006 tMod [8-bit@all X86_64]
Настройки программы : cabac=1 / ref=4 / deblock=1:-2:-1 / analyse=0x3:0x113 / me=umh / subme=11 / psy=1 / fade_compensate=0.00 / psy_rd=0.90:0.00 / mixed_ref=1 / me_range=32 / chroma_me=1 / trellis=2 / 8x8dct=1 / cqm=0 / deadzone=21,11 / fast_pskip=1 / chroma_qp_offset=-2 / threads=6 / lookahead_threads=1 / sliced_threads=0 / nr=0 / decimate=1 / interlaced=0 / bluray_compat=0 / constrained_intra=0 / fgo=0 / bframes=16 / b_pyramid=2 / b_adapt=2 / b_bias=0 / direct=3 / weightb=1 / open_gop=0 / weightp=2 / keyint=230 / keyint_min=23 / scenecut=40 / intra_refresh=0 / rc_lookahead=80 / rc=2pass / mbtree=0 / bitrate=16550 / ratetol=1.0 / qcomp=0.85 / qpmin=0:0:0 / qpmax=69:69:69 / qpstep=4 / cplxblur=20.0 / qblur=0.5 / vbv_maxrate=50000 / vbv_bufsize=62500 / nal_hrd=none / filler=0 / ip_ratio=1.20 / pb_ratio=1.20 / aq=2:0.25 / aq-sensitivity=10.00 / aq-factor=1.00:1.00:1.00 / aq2=0 / aq3=0
Язык : French
Default : Да
Forced : Нет

Аудио #1
Идентификатор : 2
Формат : AC-3
Формат/Информация : Audio Coding 3
Расширение режима : CM (complete main)
Параметр Endianness формата : Big
Идентификатор кодека : A_AC3
Продолжительность : 1 ч. 32 м.
Вид битрейта : Постоянный
Битрейт : 192 Кбит/сек
Каналы : 2 канала
Расположение каналов : Front: L R
Частота : 48,0 КГц
Битовая глубина : 16 бит
Метод сжатия : С потерями
Размер потока : 127 Мбайт (1%)
Заголовок : АС3 2.0 @ 192 kbps - AVO, JAnkilevich
Язык : Russian
Default : Нет
Forced : Нет

Аудио #2
Идентификатор : 3
Формат : DTS
Формат/Информация : Digital Theater Systems
Режим : 16
Параметр Endianness формата : Big
Идентификатор кодека : A_DTS
Продолжительность : 1 ч. 32 м.
Вид битрейта : Постоянный
Битрейт : 768 Кбит/сек
Каналы : 2 канала
Расположение каналов : Front: L R
Частота : 48,0 КГц
Битовая глубина : 24 бит
Метод сжатия : С потерями
Размер потока : 508 Мбайт (4%)
Заголовок : DTS 2.0 @ 768 kbps - VO, Matveev
Язык : Russian
Default : Нет
Forced : Нет

Аудио #3
Идентификатор : 4
Формат : DTS
Формат/Информация : Digital Theater Systems
Режим : 16
Параметр Endianness формата : Big
Идентификатор кодека : A_DTS
Продолжительность : 1 ч. 32 м.
Вид битрейта : Постоянный
Битрейт : 768 Кбит/сек
Каналы : 2 канала
Расположение каналов : Front: L R
Частота : 48,0 КГц
Битовая глубина : 24 бит
Метод сжатия : С потерями
Размер потока : 508 Мбайт (4%)
Заголовок : DTS 2.0 @ 768 kbps - Original
Язык : French
Default : Нет
Forced : Нет

Текст #1
Идентификатор : 5
Формат : UTF-8
Идентификатор кодека : S_TEXT/UTF8
Идентификатор кодека/Информация : UTF-8 Plain Text
Заголовок : Full
Язык : Russian
Default : Нет
Forced : Нет

Текст #2
Идентификатор : 6
Формат : UTF-8
Идентификатор кодека : S_TEXT/UTF8
Идентификатор кодека/Информация : UTF-8 Plain Text
Заголовок : Full
Язык : French
Default : Нет
Forced : Нет

Текст #3
Идентификатор : 7
Формат : PGS
Режим смешивания : zlib
Идентификатор кодека : S_HDMV/PGS
Идентификатор кодека/Информация : The same subtitle format used on BDs/HD-DVDs
Заголовок : Full
Язык : French
Default : Нет
Forced : Нет

Меню
00:00:00.000 : :Chapter 01
00:07:55.000 : :Chapter 02
00:16:51.500 : :Chapter 03
00:22:44.250 : :Chapter 04
00:33:09.708 : :Chapter 05
00:38:50.957 : :Chapter 06
00:47:18.207 : :Chapter 07
00:54:33.791 : :Chapter 08
01:01:08.541 : :Chapter 09
01:10:27.916 : :Chapter 10
01:17:13.500 : :Chapter 11
01:26:30.000 : :Chapter 12
01:32:30.750 : :Chapter 13

"x264 log"

x264 [info]: frame I:726 Avg QP:18.24 size:176138
x264 [info]: frame P:25944 Avg QP:19.57 size:129658
x264 [info]: frame B:106546 Avg QP:21.30 size: 75006

x264 [info]: consecutive B-frames: 1.3% 1.5% 5.1% 10.7% 11.4% 59.1% 7.9% 1.3% 0.8% 0.4% 0.1% 0.1% 0.0% 0.0% 0.0% 0.0% 0.1%

x264 [info]: ref P L0: 44.2% 13.4% 25.0% 15.2% 2.2% 0.0%
x264 [info]: ref B L0: 86.5% 10.1% 3.4%
x264 [info]: ref B L1: 94.1% 5.9%


Цитата:

Перевод субтитров - sekassir.
Исходный диск приобретен в рамках сервиса "Копилка". Спонсоры: RAUL, gorme, SSurfer, gelom, igorlit, spangr, Alex_Cabbage, Nike997, iga60, Racoon, AndyCher, arka, hda, chplintik13, maxiboo, mtk99, Luka69, _astarot_, FoggyDew, irrlicht.
Синхронизация авторского перевода - Elheym.


Ссылки для скачивания:

http//bt.hqclub.net/files/ok.png Торрент: Ты – яд / Night Is Not for Sleep / Toi... le venin (1958) BDRip 1080p

Лучшая онлайн игра!


Публикация материалов сайта на сторонних ресурсах возможна только в неизменном виде.


Обсудить релиз на форуме

Вас также может заинтересовать:


  • 5
 (Голосов: 1)


Распечатать новость на принтере Детектив
Обновлено: 20.03.2015 - 20:18

КОММЕНТАРИИ

 №1. Elheym

Статус: Стажер | Новостей: 320 | Комментариев: 70
Торрент перезалит. Добавлены оригинальные (французские) субтитры.
~~~

20.03.2015 - 20:28   цитировать