Вас Приветствует Релиз-группа HQCLUB


Помощь ресурсу, очень ВАЖНО!!!



.


WELCOME
Добро пожаловать в наше интернет - сообщество!

Всех нас объединяет одна страсть - страсть к высококачественному кино. А это наш сайт. Ежедневно здесь мы публикуем десятки качественных, свежих, а порой и эксклюзивных релизов, которые Вы можете скачать совершенно бесплатно и без каких-либо регистраций. Посему рекомендуем Вам добавить HQClub себе в закладки, а также подписаться на нашу ленту новостей, чтобы всегда быть в курсе всех событий. Ну а если Вы такой же синий фил, как и мы, то милости просим на наш форум. И в заключение, попробуйте зарегистрироваться, ведь не так это и сложно и займет всего лишь пару минут! Вот увидите, Вам у нас понравится и Вы вольетесь в наш дружный коллектив! Ну а пока - осматривайтесь = )
Мы рады Вам !





Планета-океан / Planet Ocean (2012) BDRip 720p

Оформил: Sky™ | 3 мая 2013 - 09:13:44 | Комментариев: 1 | Обращений: 1589 {bookmarks_news}

http//lostpic.net/images/8424b7ea45edc2958a70383de80d1f0a.png

Информация о фильме:
Название: Планета-океан
Оригинальное название: Planet Ocean
Год выхода: 2012
Жанр: Документальный
Режиссер: Ян Артус Бертранд, Мишель Пити
В ролях: Джош Дюамель

О фильме: Фильм призван объяснить некоторые из величайших природных загадок нашей планеты и ещё ярче показать важность того, чтобы человечество училось жить в гармонии с океаном.

http//rating.kinopoisk.ru/690136.gif http//toponlinekino.ru/imdb/tt2240784.png

Релиз от - http//hqclub.net/images/hqclub.png
Автор рипа: Sky™

Выпущено: Франция (Omega Watches)
Продолжительность: 01:32:42
Перевод: Профессиональный (полное дублирование) BD CEE + Профессиональный (одноголосый, закадровый) В. Курдов + Оригинальная звуковая дорожка (Французская)
Субтитры: Русские (2 вида), Английские (*.srt, отключаемые)
Сохранены оригинальные чаптеры как на Blu-ray.

Файл:
Формат: mkv
Качество: BDRip 720p (источник: http//lostpic.net/images/22eefe6b76ddac5300f588214ee6f381.gif / Blu-Ray Disc CEE / 1080p)
Видео: 1280x720 (1.77:1), 23.976 fps, X264@L4.1 ~5122 kbps avg, 0.232 bit/pixel
Аудио #1: 48 kHz, AC3 Dolby Digital, 3/2 (L,C,R,l,r) + LFE ch, ~640 kbps avg (RUS) BD CEE
Аудио #2: 48 kHz, AC3 Dolby Digital, 3/2 (L,C,R,l,r) + LFE ch, ~640 kbps avg (RUS) VO В. Курдов
Аудио #3: 48 kHz, AC3 Dolby Digital, 3/2 (L,C,R,l,r) + LFE ch, ~640 kbps avg (FRA)
Размер: 4764.39 Mb
http//lostpic.net/images/1b899dddff9c84e7020a856612f5c646.png

http//lostpic.net/thumbs/53e191950e55dea9de3e2e5d9164c9.png http//lostpic.net/thumbs/bab5b5bb4001ebac9ebcd0a621a69704.png http//lostpic.net/thumbs/1cac25865984531f1dbed65070607758.png http//lostpic.net/thumbs/3f455dcb64fb71a9e68ccdc4e345bade.png http//lostpic.net/thumbs/a24ff0a65a1dbc7a2f7fd43b78122e1d.png http//lostpic.net/thumbs/16c1767c18ad41870f7e3aab3be59f3b.png http//lostpic.net/thumbs/5fcc6397c3514d95c040bebe994397fe.png http//lostpic.net/thumbs/6bbdf45b8add76247742500fa433b222.png http//lostpic.net/thumbs/dd0c258af676dab41f67076ab9d7bfa9.png

MediaINFO
[HTML]Полное имя : Planeta.okean.2012.BDRip.720p.H264.AC3.-HQCLUB.mkv
Формат : Matroska
Версия формата : Version 4 / Version 2
Размер файла : 4,65 Гбайт
Продолжительность : 1 ч. 32 м.
Общий поток : 7185 Кбит/сек
Дата кодирования : UTC 2010-02-22 21:41:31
Программа кодирования : mkvmerge v5.9.0 ('On The Loose') built on Dec 9 2012 15:37:01
Библиотека кодирования : libebml v1.3.0 + libmatroska v1.4.0

Видео
Идентификатор : 1
Формат : AVC
Формат/Информация : Advanced Video Codec
Профиль формата : High@L4.1
Параметр CABAC формата : Да
Параметр ReFrames формата : 4 кадра
Идентификатор кодека : V_MPEG4/ISO/AVC
Продолжительность : 1 ч. 32 м.
Битрейт : 5122 Кбит/сек
Ширина : 1280 пикселей
Высота : 720 пикселей
Соотношение сторон : 16:9
Режим частоты кадров : Постоянный
Частота кадров : 23,976 кадра/сек
Цветовое пространство : YUV
Субдискретизация насыщенности : 4:2:0
Битовая глубина : 8 бит
Тип развёртки : Прогрессивная
Бит/(Пиксели*Кадры) : 0.232
Размер потока : 3,32 Гбайт (71%)
Заголовок : Планета-океан / Planet Ocean (2012) BDRip 720p | HQCLUB
Библиотека кодирования : x264 core 120 r2146 bcd41db
Настройки программы : cabac=1 / ref=4 / deblock=1:-3:-2 / analyse=0x3:0x113 / me=umh / subme=11 / psy=1 / psy_rd=1.00:0.00 / mixed_ref=1 / me_range=48 / chroma_me=1 / trellis=2 / 8x8dct=1 / cqm=0 / deadzone=21,11 / fast_pskip=1 / chroma_qp_offset=-4 / threads=12 / sliced_threads=0 / nr=0 / decimate=1 / interlaced=0 / bluray_compat=0 / constrained_intra=0 / bframes=10 / b_pyramid=2 / b_adapt=2 / b_bias=0 / direct=1 / weightb=1 / open_gop=0 / weightp=2 / keyint=240 / keyint_min=24 / scenecut=40 / intra_refresh=0 / rc_lookahead=40 / rc=crf / mbtree=0 / crf=19.0 / qcomp=0.60 / qpmin=0 / qpmax=69 / qpstep=4 / vbv_maxrate=62500 / vbv_bufsize=50000 / crf_max=0.0 / nal_hrd=none / ip_ratio=1.40 / pb_ratio=1.30 / aq=1:0.70
Default : Нет
Forced : Нет

Аудио #1
Идентификатор : 2
Формат : AC-3
Формат/Информация : Audio Coding 3
Расширение режима : CM (complete main)
Параметр Endianness формата : Big
Идентификатор кодека : A_AC3
Продолжительность : 1 ч. 32 м.
Вид битрейта : Постоянный
Битрейт : 640 Кбит/сек
Каналы : 6 каналов
Расположение каналов : Front: L C R, Side: L R, LFE
Частота : 48,0 КГц
Битовая глубина : 16 бит
Метод сжатия : С потерями
Размер потока : 424 Мбайт (9%)
Заголовок : Дубляж (BD EUR) AC3 5.1 @ 640 kbps
Язык : Russian
Default : Да
Forced : Нет

Аудио #2
Идентификатор : 3
Формат : AC-3
Формат/Информация : Audio Coding 3
Расширение режима : CM (complete main)
Параметр Endianness формата : Big
Идентификатор кодека : A_AC3
Продолжительность : 1 ч. 32 м.
Вид битрейта : Постоянный
Битрейт : 640 Кбит/сек
Каналы : 6 каналов
Расположение каналов : Front: L C R, Side: L R, LFE
Частота : 48,0 КГц
Битовая глубина : 16 бит
Метод сжатия : С потерями
Размер потока : 424 Мбайт (9%)
Заголовок : Одноголосый (В. Курдов) AC3 5.1 @ 640 kbps
Язык : Russian
Default : Нет
Forced : Нет

Аудио #3
Идентификатор : 4
Формат : AC-3
Формат/Информация : Audio Coding 3
Расширение режима : CM (complete main)
Параметр Endianness формата : Big
Идентификатор кодека : A_AC3
Продолжительность : 1 ч. 32 м.
Вид битрейта : Постоянный
Битрейт : 640 Кбит/сек
Каналы : 6 каналов
Расположение каналов : Front: L C R, Side: L R, LFE
Частота : 48,0 КГц
Битовая глубина : 16 бит
Метод сжатия : С потерями
Размер потока : 424 Мбайт (9%)
Заголовок : Оригинал AC3 5.1 @ 640 kbps
Язык : French
Default : Нет
Forced : Нет

Текст #1
Идентификатор : 5
Формат : UTF-8
Идентификатор кодека : S_TEXT/UTF8
Идентификатор кодека/Информация : UTF-8 Plain Text
Заголовок : Full (BD EUR)
Язык : Russian
Default : Да
Forced : Нет

Текст #2
Идентификатор : 6
Формат : UTF-8
Идентификатор кодека : S_TEXT/UTF8
Идентификатор кодека/Информация : UTF-8 Plain Text
Заголовок : Full (Kurdov)
Язык : Russian
Default : Нет
Forced : Нет

Текст #3
Идентификатор : 7
Формат : UTF-8
Идентификатор кодека : S_TEXT/UTF8
Идентификатор кодека/Информация : UTF-8 Plain Text
Заголовок : Full (BD EUR)
Язык : English
Default : Нет
Forced : Нет

Меню
00:00:00.000 : en:00:00:00.000
00:08:58.840 : en:00:08:58.840
00:17:52.560 : en:00:17:52.560
00:28:26.960 : en:00:28:26.960
00:39:40.640 : en:00:39:40.640
00:51:13.320 : en:00:51:13.320
00:56:11.600 : en:00:56:11.600
01:05:40.360 : en:01:05:40.360
01:16:31.920 : en:01:16:31.920
01:22:50.560 : en:01:22:50.560[/HTML]

x264 log
[HTML]---[NoImage] x264 [info]: frame I:688 Avg QP:19.06 size:119022
---[NoImage] x264 [info]: frame P:30533 Avg QP:20.51 size: 54867
---[NoImage] x264 [info]: frame B:102148 Avg QP:23.43 size: 19163
---[NoImage] x264 [info]: consecutive B-frames: 2.8% 2.5% 4.9% 30.5% 17.4% 34.3% 3.7% 1.0% 0.9% 1.2% 1.0%
---[NoImage] x264 [info]: mb I I16..4: 12.8% 66.8% 20.4%
---[NoImage] x264 [info]: mb P I16..4: 2.2% 11.4% 1.9% P16..4: 27.5% 34.1% 13.2% 0.0% 0.0% skip: 9.7%
---[NoImage] x264 [info]: mb B I16..4: 0.6% 1.7% 0.3% B16..8: 32.0% 20.4% 3.6% direct: 8.3% skip:33.1% L0:34.4% L1:42.1% BI:23.5%
---[NoImage] x264 [info]: 8x8 transform intra:70.1% inter:60.9%
---[NoImage] x264 [info]: coded y,uvDC,uvAC intra: 70.6% 82.7% 63.1% inter: 27.6% 33.6% 12.9%
---[NoImage] x264 [info]: i16 v,h,dc,p: 48% 16% 7% 30%
---[NoImage] x264 [info]: i8 v,h,dc,ddl,ddr,vr,hd,vl,hu: 4% 10% 8% 9% 14% 10% 17% 10% 18%
---[NoImage] x264 [info]: i4 v,h,dc,ddl,ddr,vr,hd,vl,hu: 6% 9% 15% 7% 14% 10% 15% 8% 16%
---[NoImage] x264 [info]: i8c dc,h,v,p: 45% 28% 13% 14%
---[NoImage] x264 [info]: Weighted P-Frames: Y:5.6% UV:3.0%
---[NoImage] x264 [info]: ref P L0: 54.4% 15.9% 20.0% 8.8% 0.8% 0.0%
---[NoImage] x264 [info]: ref B L0: 90.7% 7.4% 1.9%
---[NoImage] x264 [info]: ref B L1: 95.4% 4.6%[/HTML]


Ссылки для скачивания:

http//bt.hqclub.net/files/ok.png Торрент: Планета-океан / Planet Ocean (2012) BDRip 720p

Лучшая онлайн игра!


Публикация материалов сайта на сторонних ресурсах возможна только в неизменном виде.


Обсудить релиз на форуме

Вас также может заинтересовать:


  • 5
 (Голосов: 2)


Распечатать новость на принтере Документальный
Обновлено: 5.05.2013 - 12:37

КОММЕНТАРИИ

 №1. Sky™

Статус: Новичок | Новостей: 153 | Комментариев: 43
Sky™ Прошу прощения за некоторые неудобства с просмотром, все исправлено. тф перезалит, просьба перекачатьah
~~~

3.05.2013 - 19:42   цитировать