Вас Приветствует Релиз-группа HQCLUB


Помощь ресурсу, очень ВАЖНО!!!



.


WELCOME
Добро пожаловать в наше интернет - сообщество!

Всех нас объединяет одна страсть - страсть к высококачественному кино. А это наш сайт. Ежедневно здесь мы публикуем десятки качественных, свежих, а порой и эксклюзивных релизов, которые Вы можете скачать совершенно бесплатно и без каких-либо регистраций. Посему рекомендуем Вам добавить HQClub себе в закладки, а также подписаться на нашу ленту новостей, чтобы всегда быть в курсе всех событий. Ну а если Вы такой же синий фил, как и мы, то милости просим на наш форум. И в заключение, попробуйте зарегистрироваться, ведь не так это и сложно и займет всего лишь пару минут! Вот увидите, Вам у нас понравится и Вы вольетесь в наш дружный коллектив! Ну а пока - осматривайтесь = )
Мы рады Вам !





Тропы / Tracks (2013) BDRip-AVC

Оформил: Elheym | 20 сентября 2014 - 09:48:35 | Комментариев: 1 | Обращений: 1041 {bookmarks_news}

http//lostpic.net/orig_images/f/8/7/f87e1dbf43c037652bfa51010b723733.jpg

Информация о фильме:
Название: Тропы
Оригинальное название: Tracks
Год выхода: 2013
Жанр: драма, приключения, биография
Режиссер: Джон Кёрран
В ролях: Миа Васиковска, Адам Драйвер, Эмма Бут, Джессика Тоуви, Райнер Бок, Мелани Занетти, Роберт Колеби, Лили Перл, Брайан Пробетс, Кэрол Барнс

О фильме: Юная Робин решает в одиночку пересечь Австралию. В пути ее сопровождают лишь собака и четыре верблюда. Журнал «National Geographic», заинтересовавшись ее проектом, предлагает девушке писать путевые заметки и дает в сопровождение фотографа.

«Leave everything behind»



http//rating.kinopoisk.ru/683139.gif http//tracker.0day.kiev.ua/imdb/imdb_tt2167266.gif

Релиз от - http//hqclub.net/images/hqclub.png
Автор рипа: Elheym

Выпущено: Австралия, See-Saw Films
Продолжительность: 01:52:32
Перевод: Профессиональный (многоголосый, закадровый), R5
Оригинальная аудио дорожка: английский
Субтитры: русские (полные), английские (полные, полные SDH)
Главы: присутствуют, сохранены оригинальные

Цитата:
Перевод Юрия Сербина выполнен спонсорами ресурса e180 и участниками сервиса "Озвучивание": tambov68, corgeone, terminal.


Дополнительные аудиодорожки:
+ Авторский (одноголосый, закадровый) Ю. Сербин

Файл:
Формат: MKV
Качество: BDRip-AVC (источник: http//i28.fastpic.ru/big/2011/1013/a8/a3d28e80c9544f4c572189fc892ea8.gif / Blu-Ray Remux / 1080p)
Видео: 1088x452 (2.40:1), 24.0 fps, MPEG-4 AVC, ~4416 kbps avg, 0.374 bit/pixel
Аудио #1: 48 kHz, AC3 Dolby Digital, 3/2 (L,C,R,l,r) + LFE ch, ~448 kbps (MVO)
Аудио #2: 48 kHz, AC3 Dolby Digital, 3/2 (L,C,R,l,r) + LFE ch, ~448 kbps (ENG)
Аудио #3: 48 kHz, AC3 Dolby Digital, 3/2 (L,C,R,l,r) + LFE ch, ~448 kbps (AVO.SERBIN) (отдельно)
Размер: 4.26 GB
Сэмпл: скачать

http//lostpic.net/thumbs_images/3/7/9/3796156985cc72cec39f51f245a8deb1.png http//lostpic.net/thumbs_images/6/5/7/67ad123efb0b9cf3c54b88021e0cf6.png http//lostpic.net/thumbs_images/1/7/e/17ec5ff8de3eadaa06f417d29e0ab01d.png http//lostpic.net/thumbs_images/7/f/9/7f9df86d79b275c7ccce1e71832909.png http//lostpic.net/thumbs_images/9/9/7/99792d6a71de7a54612bb35168b625.png http//lostpic.net/thumbs_images/0/9/f/09f365dd7acf513b367fa020288eeb4f.png

"MediaInfo"

Уникальный идентификатор : 213014165284912612071908022629098214198 (0xA0410934065DE5B989F4079702A65336)
Полное имя : Tracks.2013.DUAL.BDRip-AVC.x264.AC3.-HQCLUB.mkv
Формат : Matroska
Версия формата : Version 2
Размер файла : 4,26 Гбайт
Продолжительность : 1 ч. 52 м.
Общий поток : 5420 Кбит/сек
Дата кодирования : UTC 2014-09-20 05:14:05
Программа кодирования : mkvmerge v5.2.0 ('I can't explain') built on Dec 18 2011 18:12:03
Библиотека кодирования : libebml v1.2.3 + libmatroska v1.3.0
Attachment : Yes / Yes

Видео
Идентификатор : 1
Формат : AVC
Формат/Информация : Advanced Video Codec
Профиль формата : High@L4.1
Параметр CABAC формата : Да
Параметр ReFrames формата : 12 кадров
Идентификатор кодека : V_MPEG4/ISO/AVC
Продолжительность : 1 ч. 52 м.
Битрейт : 4416 Кбит/сек
Ширина : 1088 пикселей
Высота : 452 пикселя
Соотношение сторон : 2,40:1
Режим частоты кадров : Постоянный
Частота кадров : 24,000 кадра/сек
Цветовое пространство : YUV
Субдискретизация насыщенности : 4:2:0
Битовая глубина : 8 бит
Тип развёртки : Прогрессивная
Бит/(Пиксели*Кадры) : 0.374
Размер потока : 3,47 Гбайт (81%)
Заголовок : Тропы / Tracks (2013) BDRip-AVC by HQCLUB [Elheym]
Библиотека кодирования : x264 core 142 r2479 dd79a61
Настройки программы : cabac=1 / ref=12 / deblock=1:-3:-2 / analyse=0x3:0x113 / me=umh / subme=11 / psy=1 / psy_rd=1.06:0.00 / mixed_ref=1 / me_range=32 / chroma_me=1 / trellis=2 / 8x8dct=1 / cqm=0 / deadzone=21,11 / fast_pskip=0 / chroma_qp_offset=-4 / threads=6 / lookahead_threads=1 / sliced_threads=0 / nr=0 / decimate=1 / interlaced=0 / bluray_compat=0 / constrained_intra=0 / bframes=14 / b_pyramid=2 / b_adapt=2 / b_bias=0 / direct=1 / weightb=1 / open_gop=0 / weightp=2 / keyint=240 / keyint_min=24 / scenecut=40 / intra_refresh=0 / rc_lookahead=40 / rc=crf / mbtree=1 / crf=14.6 / qcomp=0.60 / qpmin=0 / qpmax=69 / qpstep=4 / vbv_maxrate=50000 / vbv_bufsize=62500 / crf_max=0.0 / nal_hrd=none / filler=0 / ip_ratio=1.40 / aq=2:0.90
Язык : English
Default : Да
Forced : Нет

Аудио #1
Идентификатор : 2
Формат : AC-3
Формат/Информация : Audio Coding 3
Расширение режима : CM (complete main)
Параметр Endianness формата : Big
Идентификатор кодека : A_AC3
Продолжительность : 1 ч. 52 м.
Вид битрейта : Постоянный
Битрейт : 448 Кбит/сек
Каналы : 6 каналов
Расположение каналов : Front: L C R, Side: L R, LFE
Частота : 48,0 КГц
Битовая глубина : 16 бит
Метод сжатия : С потерями
Размер потока : 361 Мбайт (8%)
Заголовок : АС3 5.1 @ 448 kbps - MVO, R5
Язык : Russian
Default : Нет
Forced : Нет

Аудио #2
Идентификатор : 3
Формат : AC-3
Формат/Информация : Audio Coding 3
Расширение режима : CM (complete main)
Параметр Endianness формата : Big
Идентификатор кодека : A_AC3
Продолжительность : 1 ч. 52 м.
Вид битрейта : Постоянный
Битрейт : 448 Кбит/сек
Каналы : 6 каналов
Расположение каналов : Front: L C R, Side: L R, LFE
Частота : 48,0 КГц
Битовая глубина : 16 бит
Метод сжатия : С потерями
Размер потока : 361 Мбайт (8%)
Заголовок : АС3 5.1 @ 448 kbps - Original
Язык : English
Default : Нет
Forced : Нет

Текст #1
Идентификатор : 4
Формат : UTF-8
Идентификатор кодека : S_TEXT/UTF8
Идентификатор кодека/Информация : UTF-8 Plain Text
Заголовок : Full
Язык : Russian
Default : Нет
Forced : Нет

Текст #2
Идентификатор : 5
Формат : UTF-8
Идентификатор кодека : S_TEXT/UTF8
Идентификатор кодека/Информация : UTF-8 Plain Text
Заголовок : Full
Язык : English
Default : Нет
Forced : Нет

Текст #3
Идентификатор : 6
Формат : UTF-8
Идентификатор кодека : S_TEXT/UTF8
Идентификатор кодека/Информация : UTF-8 Plain Text
Заголовок : Full SDH
Язык : English
Default : Нет
Forced : Нет

Меню
00:00:00.000 : :Chapter 01
00:14:36.291 : :Chapter 02
00:28:36.500 : :Chapter 03
00:45:27.375 : :Chapter 04
00:59:24.541 : :Chapter 05
01:13:41.500 : :Chapter 06
01:29:34.250 : :Chapter 07
01:46:05.208 : :Chapter 08
01:52:32.625 : :Chapter 09

"x264 log"

x264 [info]: frame I:1321 Avg QP:11.46 size:162227
x264 [info]: frame P:32599 Avg QP:15.42 size: 54551
x264 [info]: frame B:128145 Avg QP:19.17 size: 14231

x264 [info]: consecutive B-frames: 1.6% 1.9% 5.9% 19.3% 18.1% 36.3% 5.4% 2.1% 1.7% 3.2% 1.2% 1.2% 0.6% 0.8% 0.7%

x264 [info]: ref P L0: 40.2% 12.6% 17.9% 6.9% 6.1% 3.9% 3.8% 2.0% 2.0% 1.5% 1.6% 1.3% 0.2% 0.0%
x264 [info]: ref B L0: 69.2% 12.9% 6.2% 3.4% 2.3% 2.0% 1.5% 1.0% 0.8% 0.5% 0.2%
x264 [info]: ref B L1: 91.5% 8.5%


Ссылки для скачивания:

http//bt.hqclub.net/files/ok.png Торрент: Тропы / Tracks (2013) BDRip-AVC

Лучшая онлайн игра!


Публикация материалов сайта на сторонних ресурсах возможна только в неизменном виде.


Обсудить релиз на форуме

Вас также может заинтересовать:


  • 5
 (Голосов: 2)


Распечатать новость на принтере Драма, Приключения, Биография
Обновлено: 20.09.2014 - 10:05

КОММЕНТАРИИ

 №1. ru4lan

Статус: Кинокритик | Новостей: 0 | Комментариев: 2736
ru4lan великоват для меня
~~~

20.09.2014 - 10:31   цитировать