Вас Приветствует Релиз-группа HQCLUB


Помощь ресурсу, очень ВАЖНО!!!



.


WELCOME
Добро пожаловать в наше интернет - сообщество!

Всех нас объединяет одна страсть - страсть к высококачественному кино. А это наш сайт. Ежедневно здесь мы публикуем десятки качественных, свежих, а порой и эксклюзивных релизов, которые Вы можете скачать совершенно бесплатно и без каких-либо регистраций. Посему рекомендуем Вам добавить HQClub себе в закладки, а также подписаться на нашу ленту новостей, чтобы всегда быть в курсе всех событий. Ну а если Вы такой же синий фил, как и мы, то милости просим на наш форум. И в заключение, попробуйте зарегистрироваться, ведь не так это и сложно и займет всего лишь пару минут! Вот увидите, Вам у нас понравится и Вы вольетесь в наш дружный коллектив! Ну а пока - осматривайтесь = )
Мы рады Вам !





Охотник / The Hunter (2011) BDRip-AVC

Оформил: Gellard | 14 июня 2012 - 16:12:03 | Комментариев: 5 | Обращений: 1449 {bookmarks_news}

http//lostpic.net/images/ace23d7a5a1b425ef539d736d04d176b.png

Информация о фильме:
Название: Охотник
Оригинальное название: The Hunter
Год выхода: 2011
Жанр: драма, приключения
Режиссер: Дэниэл Неттхейм / Daniel Nettheim
В ролях: Уиллем Дефо, Фрэнсис О’Коннор, Сэм Нил, Каллэн Мулвей, Салливан Степлтон, Яцек Коман, Дэниэл Уилли, Моргана Дейвис, Дэн Спилман, Джэйми Тимони

О фильме: Мартин — охотник-одиночка. У него нет друзей и семьи. Он берется за самые рискованные и опасные задания — ведь ему нечего терять.
В поисках легкого заработка по контракту с загадочной биотехнологической компанией он отправляется в дикие земли Тасмании. Его задача — отыскать и убить последнего Австралийского Тигра, который уже несколько лет считается полностью истребленным. Прибыв на место, Мартин селится у Люси — странной и одинокой красивой женщины, которая скорбит по мужу, исчезнувшему в тасманской глуши при крайне загадочных обстоятельствах.

http//www.kinopoisk.ru/rating/558515.gif

Релиз от - http//hqclub.net/images/hqclub.png
Автор рипа: Deep Fusion

Выпущено: Австралия
Продолжительность: 01:41:32
Перевод: Профессиональный (многоголосый, закадровый) R5 + Авторский одноголосый С.Визгунова (отдельно на narod.ru) + Оригинальная звуковая дорожка (отдельно на narod.ru)
Субтитры: Русские (полные)

Файл:
Формат: MKV
Качество: BDRip-AVC (Источник: HDCLUB / BDRemux / 1080p)
Видео: 1024x438 (2.34:1), 23.976 fps, x264@L4.1 ~2689 kbps avg, 0.250 bit/pixel
Звук #1: 48 kHz, AC3 Dolby Digital, 3/2 (L,C,R,l,r) + LFE ch, ~384 kbps avg (RUS)
Звук #2: 48 kHz, AC3 Dolby Digital, 3/2 (L,C,R,l,r) + LFE ch, ~384 kbps avg (AVO.VIZGUNOV)(отдельно на narod.ru)
Звук #3: 48 kHz, AC3 Dolby Digital, 3/2 (L,C,R,l,r) + LFE ch, ~384 kbps avg (ENG)(отдельно на narod.ru)
Размер: 2229.85 Mb
Скачать: Сэмпл

http//lostpic.net/thumbs/fb3d7b93714e34d9c10c82e0f73f.png http//lostpic.net/thumbs/27d926c8d4a1820c6d63e6f79e785b87.png http//lostpic.net/thumbs/2515cde918baab619c58250c383d16.png http//lostpic.net/thumbs/22ce0a8133cef3f8f412a1ed937d0843.png http//lostpic.net/thumbs/a02bbadee9cecc7c18fbae9410229664.png

"MediaInfo"
Формат : Matroska
Версия формата : Version 2
Размер файла : 2,18 Гбайт
Продолжительность : 1 ч. 41 м.
Общий поток : 3071 Кбит/сек
Дата кодирования : UTC 2012-06-13 23:08:23
Программа кодирования : mkvmerge v5.5.0 ('Healer') built on Apr 6 2012 21:43:24
Библиотека кодирования : libebml v1.2.3 + libmatroska v1.3.0

Видео
Идентификатор : 1
Формат : AVC
Формат/Информация : Advanced Video Codec
Профиль формата : High@L4.1
Параметр CABAC формата : Да
Параметр ReFrames формата : 10 кадров
Идентификатор кодека : V_MPEG4/ISO/AVC
Продолжительность : 1 ч. 41 м.
Битрейт : 2689 Кбит/сек
Ширина : 1024 пикселя
Высота : 438 пикселей
Соотношение сторон : 2,35:1
Частота кадров : 23,976 кадра/сек
Цветовое пространство : YUV
Субдискретизация насыщенности : 4:2:0
Битовая глубина : 8 бит
Тип развёртки : Прогрессивная
Бит/(Пиксели*Кадры) : 0.250
Размер потока : 1,86 Гбайт (86%)
Заголовок : Охотник / The Hunter (2011) BDRip-AVC | HQCLUB by Deep Fusion
Библиотека кодирования : x264 core 125 r2200 999b753
Настройки программы : cabac=1 / ref=10 / deblock=1:-3:-3 / analyse=0x3:0x113 / me=umh / subme=11 / psy=1 / psy_rd=1.00:0.05 / mixed_ref=1 / me_range=64 / chroma_me=1 / trellis=2 / 8x8dct=1 / cqm=0 / deadzone=21,11 / fast_pskip=0 / chroma_qp_offset=-5 / threads=6 / lookahead_threads=1 / sliced_threads=0 / nr=0 / decimate=1 / interlaced=0 / bluray_compat=0 / constrained_intra=0 / bframes=12 / b_pyramid=2 / b_adapt=2 / b_bias=0 / direct=1 / weightb=1 / open_gop=0 / weightp=2 / keyint=240 / keyint_min=23 / scenecut=40 / intra_refresh=0 / rc_lookahead=60 / rc=2pass / mbtree=0 / bitrate=2689 / ratetol=1.0 / qcomp=0.60 / qpmin=10 / qpmax=69 / qpstep=4 / cplxblur=20.0 / qblur=0.5 / vbv_maxrate=62500 / vbv_bufsize=50000 / nal_hrd=none / ip_ratio=1.40 / pb_ratio=1.30 / aq=1:0.80
Язык : English
Default : Да
Forced : Нет

Аудио
Идентификатор : 2
Формат : AC-3
Формат/Информация : Audio Coding 3
Расширение режима : CM (complete main)
Параметр Endianness формата : Big
Идентификатор кодека : A_AC3
Продолжительность : 1 ч. 41 м.
Вид битрейта : Постоянный
Битрейт : 384 Кбит/сек
Каналы : 6 каналов
Расположение каналов : Front: L C R, Side: L R, LFE
Частота : 48,0 КГц
Битовая глубина : 16 бит
Метод сжатия : С потерями
Размер потока : 279 Мбайт (13%)
Заголовок : Профессиональный (многоголосый, закадровый) R5
Язык : Russian
Default : Да
Forced : Нет

Текст
Идентификатор : 3
Формат : UTF-8
Идентификатор кодека : S_TEXT/UTF8
Идентификатор кодека/Информация : UTF-8 Plain Text
Заголовок : Русские (полные)
Язык : Russian
Default : Нет
Forced : Нет

Меню
00:00:00.000 : :Chapter 01
00:07:46.548 : :Chapter 02
00:16:31.782 : :Chapter 03
00:24:43.105 : :Chapter 04
00:34:28.065 : :Chapter 05
00:42:44.103 : :Chapter 06
00:50:47.543 : :Chapter 07
00:59:13.967 : :Chapter 08
01:07:54.820 : :Chapter 09
01:16:38.594 : :Chapter 10
01:26:18.006 : :Chapter 11
01:33:48.037 : :Chapter 12
01:41:30.832 : :Chapter 13
"x264 log"
-[NoImage] x264 [info]: frame I:1062 Avg QP:17.19 size: 75385
-[NoImage] x264 [info]: frame P:27283 Avg QP:19.83 size: 26305
-[NoImage] x264 [info]: frame B:117713 Avg QP:21.11 size: 10591
-[NoImage] x264 [info]: consecutive B-frames: 1.4% 1.5% 4.6% 13.4% 15.7% 38.3% 8.7% 3.1% 3.0% 2.5% 3.0% 2.8% 2.1%
-[NoImage] x264 [info]: mb I I16..4: 6.3% 74.1% 19.6%
-[NoImage] x264 [info]: mb P I16..4: 1.0% 10.4% 1.3% P16..4: 31.7% 36.2% 14.1% 0.0% 0.0% skip: 5.3%
-[NoImage] x264 [info]: mb B I16..4: 0.2% 1.4% 0.1% B16..8: 32.2% 21.0% 4.3% direct: 8.2% skip:32.6% L0:42.7% L1:41.9% BI:15.4%
-[NoImage] x264 [info]: 8x8 transform intra:80.3% inter:58.8%
-[NoImage] x264 [info]: coded y,uvDC,uvAC intra: 84.0% 89.3% 80.1% inter: 30.4% 31.1% 13.2%
-[NoImage] x264 [info]: i16 v,h,dc,p: 55% 14% 9% 22%
-[NoImage] x264 [info]: i8 v,h,dc,ddl,ddr,vr,hd,vl,hu: 12% 7% 9% 9% 13% 12% 13% 11% 13%
-[NoImage] x264 [info]: i4 v,h,dc,ddl,ddr,vr,hd,vl,hu: 20% 7% 9% 7% 13% 12% 11% 10% 11%
-[NoImage] x264 [info]: i8c dc,h,v,p: 51% 21% 14% 14%
-[NoImage] x264 [info]: Weighted P-Frames: Y:3.9% UV:1.2%
-[NoImage] x264 [info]: ref P L0: 48.3% 10.3% 16.2% 7.4% 5.5% 4.2% 3.3% 2.0% 1.6% 1.3% 0.1% 0.0%
-[NoImage] x264 [info]: ref B L0: 71.2% 14.4% 6.1% 3.0% 2.1% 1.5% 1.2% 0.5% 0.2%
-[NoImage] x264 [info]: ref B L1: 92.8% 7.2%
-[NoImage] x264 [info]: kb/s:2684.85


http//bt.hqclub.net/files/ok.png Торрент: Охотник / The Hunter (2011) BDRip-AVC

Лучшая онлайн игра!


Публикация материалов сайта на сторонних ресурсах возможна только в неизменном виде.


Обсудить релиз на форуме

Вас также может заинтересовать:


  • 5
 (Голосов: 6)


Распечатать новость на принтере Драма, Приключения

КОММЕНТАРИИ

 №1. gubiniliya

Статус: Любитель | Новостей: 0 | Комментариев: 107
а можно не AVC, а просто BDRip. И когда же уже будет Гнев Титанов???
~~~

15.06.2012 - 23:51   цитировать  

 №2. zeffc63

Статус: Кинокритик | Новостей: 0 | Комментариев: 1096
zeffc63 gubiniliya Так он уже есть здесь на сайте http://hqclub.net/category/drama-adventure/ohotnik_the_hunter_2011_bdrip.html
gubin iliya написал:
а можно не AVC, а просто BDRip

~~~

16.06.2012 - 02:34   цитировать  

 №3. gubiniliya

Статус: Любитель | Новостей: 0 | Комментариев: 107
спасибо, а то тут поис не очень. Искал не выдало. Теперь жду Гнев Титанов.
~~~

16.06.2012 - 02:46   цитировать  

 №4. zeffc63

Статус: Кинокритик | Новостей: 0 | Комментариев: 1096
zeffc63
gubiniliya написал:
Теперь жду Гнев Титанов
Вот что пишут на кинопоиске, релиз на Blu-Ray 12 июля.. подождем..
~~~

17.06.2012 - 12:03   цитировать  

 №5. vitek

Статус: Зритель | Новостей: 0 | Комментариев: 195
спасибо
~~~

27.08.2012 - 19:34   цитировать