Вас Приветствует Релиз-группа HQCLUB


Помощь ресурсу, очень ВАЖНО!!!



.


WELCOME
Добро пожаловать в наше интернет - сообщество!

Всех нас объединяет одна страсть - страсть к высококачественному кино. А это наш сайт. Ежедневно здесь мы публикуем десятки качественных, свежих, а порой и эксклюзивных релизов, которые Вы можете скачать совершенно бесплатно и без каких-либо регистраций. Посему рекомендуем Вам добавить HQClub себе в закладки, а также подписаться на нашу ленту новостей, чтобы всегда быть в курсе всех событий. Ну а если Вы такой же синий фил, как и мы, то милости просим на наш форум. И в заключение, попробуйте зарегистрироваться, ведь не так это и сложно и займет всего лишь пару минут! Вот увидите, Вам у нас понравится и Вы вольетесь в наш дружный коллектив! Ну а пока - осматривайтесь = )
Мы рады Вам !





12 лет рабства / 12 Years a Slave (2013) BDRip-AVC

Оформил: Elheym | 14 сентября 2014 - 19:19:39 | Комментариев: 3 | Обращений: 1730 {bookmarks_news}

http//lostpic.net/orig_images/d/4/7/d475ec8ecd063c2eabdd71c9b9aa07.jpg

Информация о фильме:
Название: 12 лет рабства
Оригинальное название: 12 Years a Slave
Год выхода: 2013
Жанр: драма, биография, история
Режиссер: Стив МакКуин
В ролях: Чиветель Эджиофор, Майкл Фассбендер, Бенедикт Камбербэтч, Пол Дано, Пол Джаматти, Лупита Нионго, Сара Полсон, Брэд Питт, Элфри Вудард, Куавенжаней Уоллис

О фильме: Соломон Нортап был женатым и образованным мужчиной, который жил и работал в Нью-Йорке, когда два человека однажды предложили ему привлекательную работу в Вашингтоне. По прибытии он был похищен, стал рабом и влачил жалкую жизнь, переходя от одного хозяина к другому.

«The extraordinary true story of Solomon Northup»



http//rating.kinopoisk.ru/606646.gif http//tracker.0day.kiev.ua/imdb/imdb_tt2024544.gif

Релиз от - http//hqclub.net/images/hqclub.png
Автор рипа: Elheym

Выпущено: США, Великобритания, Film4, New Regency Pictures, Plan B Entertainment, Regency Enterprises, River Road Entertainment
Продолжительность: 02:14:10
Перевод: Профессиональный (полное дублирование) + Авторский (одноголосый) + Оригинал (английский)
Субтитры: русские (полные: BD, Notabenoid), английские (полные, полные SDH, полные SDH Colored)
Главы: присутствуют, сохранены оригинальные (подписаны)

Дополнительные аудиодорожки:
+ Авторский (одноголосый, закадровый), Ю. Сербин

Файл:
Формат: MKV
Качество: BDRip-AVC (источник: http//lostpic.net/images/20a38122bcc5994b3cdae6e4b4b0.png / Blu-ray EUR [US] / 1080p)
Видео: 1152x480 (2.40:1), 23.976 fps, MPEG-4 AVC, ~3900 kbps, 0.294 bit/pixel
Аудио #1: 48 kHz, AC3 Dolby Digital, 3/2 (L,C,R,l,r) + LFE ch, ~384 kbps (DUB)
Аудио #2: 48 kHz, AC3 Dolby Digital, 3/2 (L,C,R,l,r) + LFE ch, ~384 kbps (ENG)
Аудио #3: 48 kHz, AC3 Dolby Digital, 3/2 (L,C,R,l,r) + LFE ch, ~384 kbps (AVO.SERBIN) (отдельно)
Размер: 4.37 GB
Сэмпл: скачать

http//lostpic.net/thumbs_images/e/4/d/e4d0ff2828c97278bbe5e9d0a07585.png http//lostpic.net/thumbs_images/9/6/6/966959181e1808d9184fd39a34bb9412.png http//lostpic.net/thumbs_images/a/8/c/a8cf1e82c9bd28730c3efc9305ea9fd3.png http//lostpic.net/thumbs_images/7/9/3/79397bb417f9a05df5a98be662be.png http//lostpic.net/thumbs_images/b/f/8/bf83b370b97a22b8fad93552caa3d628.png http//lostpic.net/thumbs_images/6/a/c/6ac1e329ca3fcf8b955dba085ac20eb7.png

"MediaInfo"

Уникальный идентификатор : 199301883802655137993975736321649689156 (0x95F0258780449F259CDE92BEBBE44244)
Полное имя : 12.Years.a.Slave.2013.DUAL.BDRip-AVC.x264.AC3.-HQCLUB.mkv
Формат : Matroska
Версия формата : Version 2
Размер файла : 4,38 Гбайт
Продолжительность : 2 ч. 14 м.
Общий поток : 4671 Кбит/сек
Дата кодирования : UTC 2014-09-14 14:16:33
Программа кодирования : mkvmerge v5.2.0 ('I can't explain') built on Dec 18 2011 18:12:03
Библиотека кодирования : libebml v1.2.3 + libmatroska v1.3.0

Видео
Идентификатор : 1
Формат : AVC
Формат/Информация : Advanced Video Codec
Профиль формата : High@L4.1
Параметр CABAC формата : Да
Параметр ReFrames формата : 12 кадров
Идентификатор кодека : V_MPEG4/ISO/AVC
Продолжительность : 2 ч. 14 м.
Битрейт : 3900 Кбит/сек
Ширина : 1152 пикселя
Высота : 480 пикселей
Соотношение сторон : 2,40:1
Режим частоты кадров : Постоянный
Частота кадров : 23,976 кадра/сек
Цветовое пространство : YUV
Субдискретизация насыщенности : 4:2:0
Битовая глубина : 8 бит
Тип развёртки : Прогрессивная
Бит/(Пиксели*Кадры) : 0.294
Размер потока : 3,57 Гбайт (82%)
Заголовок : 12 лет рабства / 12 Years a Slave (2013) BDRip-AVC by HQCLUB [Elheym]
Библиотека кодирования : x264 core 142 r2453 ea0ca51
Настройки программы : cabac=1 / ref=12 / deblock=1:-3:-2 / analyse=0x3:0x113 / me=umh / subme=11 / psy=1 / psy_rd=1.04:0.00 / mixed_ref=1 / me_range=32 / chroma_me=1 / trellis=2 / 8x8dct=1 / cqm=0 / deadzone=21,11 / fast_pskip=0 / chroma_qp_offset=-4 / threads=6 / lookahead_threads=1 / sliced_threads=0 / nr=0 / decimate=1 / interlaced=0 / bluray_compat=0 / constrained_intra=0 / bframes=14 / b_pyramid=2 / b_adapt=2 / b_bias=0 / direct=3 / weightb=1 / open_gop=0 / weightp=2 / keyint=230 / keyint_min=23 / scenecut=40 / intra_refresh=0 / rc_lookahead=40 / rc=2pass / mbtree=1 / bitrate=3900 / ratetol=1.0 / qcomp=0.60 / qpmin=10 / qpmax=69 / qpstep=4 / cplxblur=20.0 / qblur=0.5 / vbv_maxrate=50000 / vbv_bufsize=62500 / nal_hrd=none / filler=0 / ip_ratio=1.40 / aq=1:0.90
Язык : English
Default : Да
Forced : Нет

Аудио #1
Идентификатор : 2
Формат : AC-3
Формат/Информация : Audio Coding 3
Расширение режима : CM (complete main)
Параметр Endianness формата : Big
Идентификатор кодека : A_AC3
Продолжительность : 2 ч. 14 м.
Вид битрейта : Постоянный
Битрейт : 384 Кбит/сек
Каналы : 6 каналов
Расположение каналов : Front: L C R, Side: L R, LFE
Частота : 48,0 КГц
Битовая глубина : 16 бит
Метод сжатия : С потерями
Размер потока : 369 Мбайт (8%)
Заголовок : АС3 5.1 @ 384 kbps - Dub, EUR
Язык : Russian
Default : Нет
Forced : Нет

Аудио #2
Идентификатор : 3
Формат : AC-3
Формат/Информация : Audio Coding 3
Расширение режима : CM (complete main)
Параметр Endianness формата : Big
Идентификатор кодека : A_AC3
Продолжительность : 2 ч. 14 м.
Вид битрейта : Постоянный
Битрейт : 384 Кбит/сек
Каналы : 6 каналов
Расположение каналов : Front: L C R, Side: L R, LFE
Частота : 48,0 КГц
Битовая глубина : 16 бит
Метод сжатия : С потерями
Размер потока : 369 Мбайт (8%)
Заголовок : АС3 5.1 @ 384 kbps - Original
Язык : English
Default : Нет
Forced : Нет

Текст #1
Идентификатор : 4
Формат : UTF-8
Идентификатор кодека : S_TEXT/UTF8
Идентификатор кодека/Информация : UTF-8 Plain Text
Заголовок : Full, BD EUR
Язык : Russian
Default : Нет
Forced : Нет

Текст #2
Идентификатор : 5
Формат : UTF-8
Идентификатор кодека : S_TEXT/UTF8
Идентификатор кодека/Информация : UTF-8 Plain Text
Заголовок : Full, Notabenoid
Язык : Russian
Default : Нет
Forced : Нет

Текст #3
Идентификатор : 6
Формат : UTF-8
Идентификатор кодека : S_TEXT/UTF8
Идентификатор кодека/Информация : UTF-8 Plain Text
Заголовок : Full
Язык : English
Default : Нет
Forced : Нет

Текст #4
Идентификатор : 7
Формат : UTF-8
Идентификатор кодека : S_TEXT/UTF8
Идентификатор кодека/Информация : UTF-8 Plain Text
Заголовок : Full SDH
Язык : English
Default : Нет
Forced : Нет

Текст #5
Идентификатор : 8
Формат : UTF-8
Идентификатор кодека : S_TEXT/UTF8
Идентификатор кодека/Информация : UTF-8 Plain Text
Заголовок : Full SDH Colored
Язык : English
Default : Нет
Forced : Нет

Меню
00:00:00.000 : :Chapter 01
00:06:09.077 : :Chapter 02
00:16:25.609 : :Chapter 03
00:25:02.209 : :Chapter 04
00:32:58.393 : :Chapter 05
00:38:39.734 : :Chapter 06
00:45:29.476 : :Chapter 07
00:52:29.688 : :Chapter 08
00:59:37.532 : :Chapter 09
01:06:47.586 : :Chapter 10
01:15:32.236 : :Chapter 11
01:22:08.214 : :Chapter 12
01:28:53.786 : :Chapter 13
01:38:19.977 : :Chapter 14
01:45:31.992 : :Chapter 15
01:54:10.385 : :Chapter 16
02:00:29.430 : :Chapter 17
02:08:37.209 : :Chapter 18
02:14:10.042 : :Chapter 19

"x264 log"

x264 [info]: frame I:1120 Avg QP:14.50 size:132372
x264 [info]: frame P:37474 Avg QP:16.75 size: 49967
x264 [info]: frame B:154416 Avg QP:20.35 size: 12329

x264 [info]: consecutive B-frames: 1.1% 1.2% 5.5% 19.1% 15.7% 39.8% 5.6% 2.1% 2.1% 1.2% 1.2% 1.9% 0.8% 1.0% 1.7%

x264 [info]: ref P L0: 41.4% 10.1% 15.0% 8.0% 6.3% 5.0% 4.2% 2.7% 2.2% 1.9% 1.6% 1.3% 0.1% 0.0%
x264 [info]: ref B L0: 65.7% 14.0% 7.0% 3.7% 2.8% 2.2% 1.8% 1.1% 0.9% 0.5% 0.2%
x264 [info]: ref B L1: 91.2% 8.8%


Ссылки для скачивания:

http//bt.hqclub.net/files/ok.png Торрент: 12 лет рабства / 12 Years a Slave (2013) BDRip-AVC

Лучшая онлайн игра!


Публикация материалов сайта на сторонних ресурсах возможна только в неизменном виде.


Обсудить релиз на форуме

Вас также может заинтересовать:


  • 4
 (Голосов: 5)


Распечатать новость на принтере Драма, Биография

КОММЕНТАРИИ

 №1. кит

Статус: Кинокритик | Новостей: 0 | Комментариев: 338
кит Сильное кино ay
Оскары честно заслужены! bg
~~~

14.09.2014 - 19:34   цитировать  

 №2. ru4lan

Статус: Кинокритик | Новостей: 0 | Комментариев: 2736
ru4lan кит, +100500
~~~

15.09.2014 - 00:45   цитировать  

 №3. Kino1

Статус: Новичок | Новостей: 0 | Комментариев: 13
Kino1 Отличное кино)
~~~

16.09.2014 - 11:17   цитировать