Вас Приветствует Релиз-группа HQCLUB


Помощь ресурсу, очень ВАЖНО!!!



.


WELCOME
Добро пожаловать в наше интернет - сообщество!

Всех нас объединяет одна страсть - страсть к высококачественному кино. А это наш сайт. Ежедневно здесь мы публикуем десятки качественных, свежих, а порой и эксклюзивных релизов, которые Вы можете скачать совершенно бесплатно и без каких-либо регистраций. Посему рекомендуем Вам добавить HQClub себе в закладки, а также подписаться на нашу ленту новостей, чтобы всегда быть в курсе всех событий. Ну а если Вы такой же синий фил, как и мы, то милости просим на наш форум. И в заключение, попробуйте зарегистрироваться, ведь не так это и сложно и займет всего лишь пару минут! Вот увидите, Вам у нас понравится и Вы вольетесь в наш дружный коллектив! Ну а пока - осматривайтесь = )
Мы рады Вам !





Великолепная афера / Matchstick Men (2003) BDRip-AVC

Оформил: Elheym | 18 ноября 2015 - 15:32:58 | Обращений: 442 {bookmarks_news}

http//img10.lostpic.net/2015/11/18/f2c97b80035eda9c61e76708cc95c69c.png

Информация о фильме:
Название: Великолепная афера
Оригинальное название: Matchstick Men
Год выхода: 2003
Жанр: драма, комедия, криминал, триллер
Режиссер: Ридли Скотт / Ridley Scott
В ролях: Николас Кейдж, Сэм Рокуэлл, Элисон Ломан, Брюс Олтмен, Брюс МакГилл, Дженни О’Хара, Стив Истин, Бет Грант, Шейла Келли, Фрэн Кранц

О фильме: Опытный мошенник Рой и его амбициозный протеже Фрэнк занимаются мелким надувательством в сфере торговли. Их фокусы приносят от нескольких сот до нескольких тысяч баксов, что, в конечном счете, делает их партнерство прибыльным. Однако, если с «работой» у Роя все в порядке, то личная жизнь полна проблем: он одинок, помешан на чистоте, и ко всему прочему не совсем психически здоров. На курсах психотерапии, на которые его заставил пойти Фрэнк, совершенно неожиданно Рой узнает о существовании дочери по имени Анжела.

Сначала появление дочки нарушает тщательно спланированный образ жизни ее отца, но вскоре Рой осознает все радости общения с близким человеком. После того как Анжела в итоге узнает чем занимается ее отец, по ее настоянию мошенники начинают обучать ее некоторым своим «приемам» торговли. К смешанному чувству удивления, гордости и тревоги отца, она показывает поразительный талант к мошенничеству…

«Солги. Обмани. Укради. Отдохни. Повтори»



http//rating.kinopoisk.ru/1952.gif http//tracker.0day.kiev.ua/imdb/imdb_tt0325805.gif

Релиз от - http//i62.fastpic.ru/big/2014/0702/3e/4ca0c27a93261c4d900a30afd0a03f3e.png
Автор рипа: Elheym

Выпущено: США ‖ HorsePower Entertainment, ImageMovers, LivePlanet, Rickshaw Productions, Scott Free Productions, Warner Bros. Pictures
Продолжительность: 01:56:09
Перевод: Профессиональный (полное дублирование) R5
Оригинальная аудиодорожка: английская
Субтитры: русские (полные: R5), английские (полные, SDH, SDH цветные)
Главы: присутствуют, сохранены оригинальные (подписаны)

Дополнительные аудиодорожки:
+ Профессиональный (многоголосый, закадровый)
+ Профессиональный (многоголосый, закадровый)
+ Профессиональный (многоголосый, закадровый) украинский [ICTV]
+ Профессиональный (многоголосый, закадровый) украинский [Inter]

Файл:
Формат: MKV
Качество: BDRip-AVC (источник: rarbg / Blu-ray Disc [Matchstick.Men.2003.1080p.BluRay.AVC.DTS-HD.MA.5.1-FGT] / 1080p)
Видео: 1152x480 (2.40:1), 23.976 fps, MPEG-4 AVC, ~4500 kbps avg, 0.339 bit/pixel
Аудио #1: 48 kHz, AC3 Dolby Digital, 3/2 (L,C,R,l,r) + LFE ch, ~384 kbps avg (DUB.R5)
Аудио #2: 48 kHz, AC3 Dolby Digital, 3/2 (L,C,R,l,r) + LFE ch, ~448 kbps avg (ENG)
Аудио #3: 48 kHz, AC3 Dolby Digital, 3/2 (L,C,R,l,r) + LFE ch, ~384 kbps avg (MVO) (отдельно)
Аудио #4: 48 kHz, AC3 Dolby Digital, 2/0 (L,R) ch, ~192 kbps avg (MVO) (отдельно)
Аудио #5: 48 kHz, AC3 Dolby Digital, 2/0 (L,R) ch, ~192 kbps avg (UKR.MVO.ICTV) (отдельно)
Аудио #6: 48 kHz, AC3 Dolby Digital, 2/0 (L,R) ch, ~192 kbps avg (UKR.MVO.INTER) (отдельно)
Сэмпл: скачать

http//img10.lostpic.net/2015/11/18/e2fc61fba9d3358228c54cee2112947f.th.png http//img10.lostpic.net/2015/11/18/a9f9297135b784c176217784440dee.th.png http//img10.lostpic.net/2015/11/18/32337965fa8ab2e961c221bef9196d92.th.png http//img10.lostpic.net/2015/11/18/5b90956d09fca955515c553f5a5328ee.th.png http//img10.lostpic.net/2015/11/18/db82ba28602d69d3e9d99c9e44ffa419.th.png http//img10.lostpic.net/2015/11/18/30c22acbc07bb508998cc44c3e739b8e.th.png

"MediaInfo"

Уникальный идентификатор : 219478678535515808459158526017308987781 (0xA51E0E506B7903718AD0AA4BA9A81185)
Полное имя : Matchstick.Men.2003.DUAL.BDRip-AVC.x264.AC3.-HQCLUB.mkv
Формат : Matroska
Версия формата : Version 2
Размер файла : 4,33 Гбайт
Продолжительность : 1 ч. 56 м.
Общий поток : 5332 Кбит/сек
Название фильма : Великолепная афера / Matchstick Men (2003) BDRip-AVC by Elheym [HQCLUB]
Дата кодирования : UTC 2015-11-18 11:37:07
Программа кодирования : mkvmerge v5.2.0 ('I can't explain') built on Dec 18 2011 18:12:03
Библиотека кодирования : libebml v1.2.3 + libmatroska v1.3.0
Attachements : cover.png

Видео
Идентификатор : 1
Формат : AVC
Формат/Информация : Advanced Video Codec
Профиль формата : High@L4
Параметр CABAC формата : Да
Параметр ReFrames формата : 14 кадров
Идентификатор кодека : V_MPEG4/ISO/AVC
Продолжительность : 1 ч. 56 м.
Битрейт : 4500 Кбит/сек
Ширина : 1152 пикселя
Высота : 480 пикселей
Соотношение сторон : 2,40:1
Режим частоты кадров : Постоянный
Частота кадров : 23,976 кадра/сек
Цветовое пространство : YUV
Субдискретизация насыщенности : 4:2:0
Битовая глубина : 8 бит
Тип развёртки : Прогрессивная
Бит/(Пиксели*Кадры) : 0.339
Размер потока : 3,56 Гбайт (82%)
Заголовок : Великолепная афера / Matchstick Men (2003) BDRip-AVC by Elheym [HQCLUB]
Библиотека кодирования : x264 core 148 r2638+53 bb29004 t_mod_Custom [8-bit@all X86_64]
Настройки программы : cabac=1 / ref=14 / deblock=1:-3:-2 / analyse=0x3:0x113 / me=umh / subme=10 / psy=1 / fade_compensate=0.00 / psy_rd=1.05:0.00 / mixed_ref=1 / me_range=32 / chroma_me=1 / trellis=2 / 8x8dct=1 / cqm=0 / deadzone=21,11 / fast_pskip=0 / chroma_qp_offset=-2 / threads=6 / lookahead_threads=2 / sliced_threads=0 / nr=0 / decimate=0 / interlaced=0 / bluray_compat=0 / constrained_intra=0 / fgo=0 / bframes=14 / b_pyramid=2 / b_adapt=2 / b_bias=0 / direct=3 / weightb=1 / open_gop=0 / weightp=2 / keyint=240 / keyint_min=23 / scenecut=40 / intra_refresh=0 / rc_lookahead=80 / rc=2pass / mbtree=0 / bitrate=4500 / ratetol=1.0 / qcomp=0.80 / qpmin=0:0:0 / qpmax=69:69:69 / qpstep=4 / cplxblur=20.0 / qblur=0.5 / vbv_maxrate=20000 / vbv_bufsize=25000 / nal_hrd=none / filler=0 / ip_ratio=1.40 / pb_ratio=1.25 / aq=2:0.50 / aq-sensitivity=15.00 / aq-factor=1.00:1.00:1.00 / aq2=0 / aq3=0 / zones=32314,33813,b=1.16/53202,53849,b=1.20/54535,54967,b=1.12/72461,73136,b=1.10/77259,77406,b=1.15/98812,98955,b=1.14/128415,128665,b=1.13/130285,130569,b=1.20/137298,137611,b=1.16/161629,167069,b=0.25
Язык : English
Default : Да
Forced : Нет

Аудио #1
Идентификатор : 2
Формат : AC-3
Формат/Информация : Audio Coding 3
Расширение режима : CM (complete main)
Параметр Endianness формата : Big
Идентификатор кодека : A_AC3
Продолжительность : 1 ч. 56 м.
Вид битрейта : Постоянный
Битрейт : 384 Кбит/сек
Каналы : 6 каналов
Расположение каналов : Front: L C R, Side: L R, LFE
Частота : 48,0 КГц
Метод сжатия : С потерями
Размер потока : 319 Мбайт (7%)
Заголовок : АС3 5.1 @ 384 kbps - Dub, R5
Язык : Russian
Default : Нет
Forced : Нет

Аудио #2
Идентификатор : 3
Формат : AC-3
Формат/Информация : Audio Coding 3
Расширение режима : CM (complete main)
Параметр Endianness формата : Big
Идентификатор кодека : A_AC3
Продолжительность : 1 ч. 56 м.
Вид битрейта : Постоянный
Битрейт : 448 Кбит/сек
Каналы : 6 каналов
Расположение каналов : Front: L C R, Side: L R, LFE
Частота : 48,0 КГц
Метод сжатия : С потерями
Размер потока : 372 Мбайт (8%)
Заголовок : АС3 5.1 @ 448 kbps - Original
Язык : English
Default : Нет
Forced : Нет

Текст #1
Идентификатор : 4
Формат : UTF-8
Идентификатор кодека : S_TEXT/UTF8
Идентификатор кодека/Информация : UTF-8 Plain Text
Заголовок : Full, R5
Язык : Russian
Default : Нет
Forced : Нет

Текст #2
Идентификатор : 5
Формат : UTF-8
Идентификатор кодека : S_TEXT/UTF8
Идентификатор кодека/Информация : UTF-8 Plain Text
Заголовок : Full
Язык : English
Default : Нет
Forced : Нет

Текст #3
Идентификатор : 6
Формат : UTF-8
Идентификатор кодека : S_TEXT/UTF8
Идентификатор кодека/Информация : UTF-8 Plain Text
Заголовок : SDH
Язык : English
Default : Нет
Forced : Нет

Текст #4
Идентификатор : 7
Формат : UTF-8
Идентификатор кодека : S_TEXT/UTF8
Идентификатор кодека/Информация : UTF-8 Plain Text
Заголовок : SDH Colored
Язык : English
Default : Нет
Forced : Нет

Меню
00:00:00.000 : :Blue Water Credits.
00:02:04.666 : :One two three... work.
00:05:21.279 : :Double play.
00:09:46.168 : :Down the drain.
00:13:52.998 : :Dr. Klein.
00:20:01.199 : :A daughter.
00:24:17.539 : :Nice meeting you, Dad.
00:30:22.612 : :Getting his act together.
00:33:49.902 : :Surprise guest.
00:36:10.418 : :Casing the joint.
00:40:32.847 : :Kid in the house.
00:45:39.111 : :Smells like gum.
00:49:02.564 : :Shame on you.
00:52:47.998 : :Teach me something.
00:54:59.671 : :Lottery larceny.
00:59:43.371 : :Working them together.
01:02:29.245 : :Lonesome.
01:06:16.931 : :A new player.
01:10:13.250 : :Switch.
01:16:07.437 : :On the record.
01:19:19.087 : :In the way.
01:22:05.962 : :Pill pushed.
01:27:06.804 : :Changed man.
01:30:59.537 : :Bullet for an intruder.
01:34:16.233 : :Hospitalized.
01:38:14.013 : :Roy's number.
01:43:19.276 : :Visiting Heather.
01:45:00.335 : :Another live one.
01:47:58.472 : :I know your name.
01:51:25.512 : :Home; End Credits.
01:56:07.961 : :

"x264 log"

x264 [info]: frame I:1846 Avg QP:14.60 size: 86895
x264 [info]: frame P:35173 Avg QP:17.34 size: 41094
x264 [info]: frame B:130051 Avg QP:19.09 size: 17773

x264 [info]: consecutive B-frames: 2.2% 2.4% 6.1% 22.7% 18.1% 33.4% 6.5% 2.9% 1.9% 1.3% 0.7% 0.5% 0.5% 0.6% 0.2%

x264 [info]: ref P L0: 41.8% 10.9% 17.2% 7.0% 5.9% 4.0% 3.6% 2.0% 1.8% 1.4% 1.3% 1.1% 1.0% 0.9% 0.1% 0.0%
x264 [info]: ref B L0: 66.1% 13.5% 6.8% 3.7% 2.6% 2.1% 1.6% 1.0% 0.8% 0.7% 0.6% 0.4% 0.1%
x264 [info]: ref B L1: 91.1% 8.9%

Цитата:

Переводы и русские субтитры взяты из релиза от - http//i28.fastpic.ru/big/2011/1013/a8/a3d28e80c9544f4c572189fc892ea8.gif - за что им и спасибо.
Все дорожки с русскими переводами синхронизированы мной.
Тайминг исходных русских субтитров оставлял желать лучшего. По этой причине субтитры подогнаны "с нуля", также были добавлены недостающие/пропущенные диалоги.


Ссылки для скачивания:

http//bt.hqclub.net/files/ok.png Торрент: Великолепная афера / Matchstick Men (2003) BDRip-AVC

Лучшая онлайн игра!


Публикация материалов сайта на сторонних ресурсах возможна только в неизменном виде.


Обсудить релиз на форуме

Вас также может заинтересовать:


  • 5
 (Голосов: 2)


Распечатать новость на принтере Драма, Комедия, Криминал, Триллер