Вас Приветствует Релиз-группа HQCLUB


Помощь ресурсу, очень ВАЖНО!!!



.


WELCOME
Добро пожаловать в наше интернет - сообщество!

Всех нас объединяет одна страсть - страсть к высококачественному кино. А это наш сайт. Ежедневно здесь мы публикуем десятки качественных, свежих, а порой и эксклюзивных релизов, которые Вы можете скачать совершенно бесплатно и без каких-либо регистраций. Посему рекомендуем Вам добавить HQClub себе в закладки, а также подписаться на нашу ленту новостей, чтобы всегда быть в курсе всех событий. Ну а если Вы такой же синий фил, как и мы, то милости просим на наш форум. И в заключение, попробуйте зарегистрироваться, ведь не так это и сложно и займет всего лишь пару минут! Вот увидите, Вам у нас понравится и Вы вольетесь в наш дружный коллектив! Ну а пока - осматривайтесь = )
Мы рады Вам !





Площадка / The Sandlot (1993) BDRip-AVC

Оформил: Elheym | 22 октября 2014 - 20:15:39 | Комментариев: 1 | Обращений: 708 {bookmarks_news}

http//lostpic.net/orig_images/6/4/e/64edd5ea58c27667d0677fd292b56e5c.jpg

Информация о фильме:
Название: Площадка
Оригинальное название: The Sandlot
Год выхода: 1993
Жанр: драма, комедия, семейный, спорт
Режиссер: Дэвид М. Эванс / David M. Evans
В ролях: Том Гайри, Майк Витар, Патрик Ренна, Чонси Леопарди, Марти Йорк, Брэндон Квинтин Адамс, Грант Гельт, Shane Obedzinski, Виктор ДиМаттья, Денис Лири, Карен Аллен, Джеймс Эрл Джонс, Марли Шелтон, Херб Мюллер, Эдди Мэтьюз, Кит Кэмпбелл, Уил Хорнефф, Тайсон Джонс, Карл Симмонс, Мори Уиллс, Пабло П. Витар, Роберт Аписа, Робби Т. Робинсон, Чарльз Фик, Тим Пейдж, Дэннис Уильямс, Cynthia Windham, Shane LaVar Smith, Арт ЛаФлёр, Крис Астоян, Лон Чейни мл., Дэвид М. Эванс, Арлисс Ховард

О фильме: Летом 1962 года после окончания 5-го класса мальчик Скотти вместе с матерью переезжает в другой штат к отчиму Биллу. Все друзья остались за тысячу километров, поэтому, естественно, нужно подружиться с местными ребятами, и, благо, есть повод: целыми днями они играют в бейсбол на местном пустыре, и команда у них неполная — не хватает ровно одного человека.

Самый старший из них — Бенджамин Франклин Родригес, он заводила, их лидер и неутомимый тренер. Бенджамин был просто фанатом бейсбола и при это славным малым — он охотно принял Скотти в команду, хотя тот и не умел играть, но страстно мечтал этому научиться…

«A piece of paradise a half block wide and a whole summer long»



http//rating.kinopoisk.ru/1067.gif http//tracker.0day.kiev.ua/imdb/imdb_tt0108037.gif

Релиз от - http//hqclub.net/images/hqclub.png
Автор рипа: Elheym

Выпущено: США, 20th Century Fox Film Corporation, Island World
Продолжительность: 01:41:08
Перевод: Профессиональный (многоголосый, закадровый), R5 + Одноголосый (закадровый), SDI Media
Оригинальная аудио дорожка: английский
Субтитры: русские (полные), английские (полные, полные SDH)
Главы: присутствуют, сохранены оригинальные

Файл:
Формат: MKV
Качество: BDRip-AVC (источник: Тарантиныч / Blu-ray Remux / 1080p)
Видео: 1052x448 (2.35:1), 23.976 fps, MPEG-4 AVC, ~4411 kbps avg, 0.390 bit/pixel
Аудио #1: 48 kHz, AC3 Dolby Digital, 3/2 (L,C,R,l,r) + LFE ch, ~448 kbps avg (MVO.R5)
Аудио #2: 48 kHz, AC3 Dolby Digital, 2/0 (L,R), ~192 kbps avg (VO.SDI-MEDIA)
Аудио #3: 48 kHz, AC3 Dolby Digital, 3/2 (L,C,R,l,r) + LFE ch, ~448 kbps avg (ENG)
Размер: 3.96 GB
Сэмпл: скачать

http//lostpic.net/thumbs_images/e/c/1/ec194fdba3e850c8fa8d584f0dd554f4.png http//lostpic.net/thumbs_images/1/1/d/11d60a1ae03400dfa6c0f0ffec541583.png http//lostpic.net/thumbs_images/6/5/9/65960b1fb54c61b188179168ebc00447.png http//lostpic.net/thumbs_images/a/d/d/adda9f955e1bfdc86ef0f68e24e392a3.png http//lostpic.net/thumbs_images/0/8/d/08d987ed5085d5d33d434c171fba25d2.png http//lostpic.net/thumbs_images/e/a/c/eac62b38bcd91bd18ed95f909c66e4.png

"MediaInfo"

Уникальный идентификатор : 180287381311617611454149550195371052992 (0x87A2162D247D213DB89FC0C793668FC0)
Полное имя : The.Sandlot.1993.TRIPLE.BDRip-AVC.x264.AC3.-HQCLUB.mkv
Формат : Matroska
Версия формата : Version 2
Размер файла : 3,96 Гбайт
Продолжительность : 1 ч. 41 м.
Общий поток : 5610 Кбит/сек
Дата кодирования : UTC 2014-10-22 13:59:39
Программа кодирования : mkvmerge v5.2.0 ('I can't explain') built on Dec 18 2011 18:12:03
Библиотека кодирования : libebml v1.2.3 + libmatroska v1.3.0

Видео
Идентификатор : 1
Формат : AVC
Формат/Информация : Advanced Video Codec
Профиль формата : High@L4.1
Параметр CABAC формата : Да
Параметр ReFrames формата : 11 кадров
Идентификатор кодека : V_MPEG4/ISO/AVC
Продолжительность : 1 ч. 41 м.
Битрейт : 4411 Кбит/сек
Ширина : 1052 пикселя
Высота : 448 пикселей
Соотношение сторон : 2,35:1
Режим частоты кадров : Постоянный
Частота кадров : 23,976 кадра/сек
Цветовое пространство : YUV
Субдискретизация насыщенности : 4:2:0
Битовая глубина : 8 бит
Тип развёртки : Прогрессивная
Бит/(Пиксели*Кадры) : 0.390
Размер потока : 3,12 Гбайт (79%)
Заголовок : Площадка / The Sandlot (1993) BDRip-AVC by HQCLUB [Elheym]
Библиотека кодирования : x264 core 142 r2479kMod dd79a61
Настройки программы : cabac=1 / ref=11 / deblock=1:-3:-2 / analyse=0x3:0x113 / me=umh / subme=11 / psy=1 / fade_compensate=0.00 / psy_rd=1.08:0.04 / mixed_ref=1 / me_range=32 / chroma_me=1 / trellis=2 / 8x8dct=1 / cqm=0 / deadzone=21,11 / fast_pskip=0 / chroma_qp_offset=-5 / threads=6 / lookahead_threads=1 / sliced_threads=0 / nr=0 / decimate=1 / interlaced=0 / bluray_compat=0 / constrained_intra=0 / fgo=0 / bframes=12 / b_pyramid=2 / b_adapt=2 / b_bias=0 / direct=3 / weightb=1 / open_gop=0 / weightp=2 / keyint=230 / keyint_min=23 / scenecut=40 / intra_refresh=0 / rc_lookahead=40 / rc=crf / mbtree=1 / crf=18.6000 / qcomp=0.70 / qpmin=0 / qpmax=69 / qpstep=4 / vbv_maxrate=50000 / vbv_bufsize=62500 / crf_max=0.0 / nal_hrd=none / filler=0 / ip_ratio=1.40 / aq=2:0.90
Язык : English
Default : Да
Forced : Нет

Аудио #1
Идентификатор : 2
Формат : AC-3
Формат/Информация : Audio Coding 3
Расширение режима : CM (complete main)
Параметр Endianness формата : Big
Идентификатор кодека : A_AC3
Продолжительность : 1 ч. 41 м.
Вид битрейта : Постоянный
Битрейт : 448 Кбит/сек
Каналы : 6 каналов
Расположение каналов : Front: L C R, Side: L R, LFE
Частота : 48,0 КГц
Битовая глубина : 16 бит
Метод сжатия : С потерями
Размер потока : 324 Мбайт (8%)
Заголовок : АС3 5.1 @ 448 kbps - MVO, R5
Язык : Russian
Default : Нет
Forced : Нет

Аудио #2
Идентификатор : 3
Формат : AC-3
Формат/Информация : Audio Coding 3
Расширение режима : CM (complete main)
Параметр Endianness формата : Big
Идентификатор кодека : A_AC3
Продолжительность : 1 ч. 41 м.
Вид битрейта : Постоянный
Битрейт : 192 Кбит/сек
Каналы : 2 канала
Расположение каналов : Front: L R
Частота : 48,0 КГц
Битовая глубина : 16 бит
Метод сжатия : С потерями
Размер потока : 139 Мбайт (3%)
Заголовок : АС3 2.0 @ 192 kbps - VO, SDI Media
Язык : Russian
Default : Нет
Forced : Нет

Аудио #3
Идентификатор : 4
Формат : AC-3
Формат/Информация : Audio Coding 3
Расширение режима : CM (complete main)
Параметр Endianness формата : Big
Идентификатор кодека : A_AC3
Продолжительность : 1 ч. 41 м.
Вид битрейта : Постоянный
Битрейт : 448 Кбит/сек
Каналы : 6 каналов
Расположение каналов : Front: L C R, Side: L R, LFE
Частота : 48,0 КГц
Битовая глубина : 16 бит
Метод сжатия : С потерями
Размер потока : 324 Мбайт (8%)
Заголовок : АС3 5.1 @ 448 kbps - Original
Язык : English
Default : Нет
Forced : Нет

Текст #1
Идентификатор : 5
Формат : UTF-8
Идентификатор кодека : S_TEXT/UTF8
Идентификатор кодека/Информация : UTF-8 Plain Text
Заголовок : Full
Язык : Russian
Default : Нет
Forced : Нет

Текст #2
Идентификатор : 6
Формат : UTF-8
Идентификатор кодека : S_TEXT/UTF8
Идентификатор кодека/Информация : UTF-8 Plain Text
Заголовок : Full
Язык : English
Default : Нет
Forced : Нет

Текст #3
Идентификатор : 7
Формат : UTF-8
Идентификатор кодека : S_TEXT/UTF8
Идентификатор кодека/Информация : UTF-8 Plain Text
Заголовок : Full SDH
Язык : English
Default : Нет
Forced : Нет

Меню
00:00:00.000 : :00:00:00.000
00:03:00.972 : :00:03:00.972
00:04:59.090 : :00:04:59.090
00:08:28.341 : :00:08:28.341
00:10:23.289 : :00:10:23.289
00:13:40.278 : :00:13:40.278
00:16:16.392 : :00:16:16.392
00:23:35.581 : :00:23:35.581
00:29:02.866 : :00:29:02.866
00:33:09.905 : :00:33:09.905
00:35:32.255 : :00:35:32.255
00:41:42.250 : :00:41:42.250
00:44:12.275 : :00:44:12.275
00:48:53.097 : :00:48:53.097
00:53:20.656 : :00:53:20.656
00:55:33.038 : :00:55:33.038
01:00:58.864 : :01:00:58.864
01:02:52.102 : :01:02:52.102
01:06:07.130 : :01:06:07.130
01:09:18.863 : :01:09:18.863
01:11:14.979 : :01:11:14.979
01:14:20.498 : :01:14:20.498
01:17:44.076 : :01:17:44.076
01:26:39.486 : :01:26:39.486
01:28:50.367 : :01:28:50.367
01:33:17.383 : :01:33:17.383
01:34:10.228 : :01:34:10.228
01:37:22.837 : :01:37:22.837

"x264 log"

x264 [info]: frame I:1371 Avg QP:16.01 size:134110
x264 [info]: frame P:29660 Avg QP:19.70 size: 43438
x264 [info]: frame B:114461 Avg QP:22.35 size: 17080

x264 [info]: consecutive B-frames: 1.6% 1.8% 6.1% 20.3% 19.0% 37.1% 6.3% 2.5% 1.9% 1.1% 1.0% 0.8% 0.4%

x264 [info]: ref P L0: 42.4% 13.2% 17.3% 6.7% 5.7% 3.8% 3.6% 1.9% 1.9% 1.5% 1.6% 0.2% 0.0%
x264 [info]: ref B L0: 71.1% 11.7% 6.0% 3.4% 2.4% 2.0% 1.6% 1.0% 0.6% 0.3%
x264 [info]: ref B L1: 92.0% 8.0%



Ссылки для скачивания:

http//bt.hqclub.net/files/ok.png Торрент: Площадка / The Sandlot (1993) BDRip-AVC

Лучшая онлайн игра!


Публикация материалов сайта на сторонних ресурсах возможна только в неизменном виде.


Обсудить релиз на форуме

Вас также может заинтересовать:


  • 5
 (Голосов: 1)


Распечатать новость на принтере Драма, Комедия, Семейный, Спорт

КОММЕНТАРИИ

 №1. ru4lan

Статус: Кинокритик | Новостей: 0 | Комментариев: 2736
ru4lan беру
~~~

6.11.2014 - 14:53   цитировать