Вас Приветствует Релиз-группа HQCLUB


Помощь ресурсу, очень ВАЖНО!!!



.


WELCOME
Добро пожаловать в наше интернет - сообщество!

Всех нас объединяет одна страсть - страсть к высококачественному кино. А это наш сайт. Ежедневно здесь мы публикуем десятки качественных, свежих, а порой и эксклюзивных релизов, которые Вы можете скачать совершенно бесплатно и без каких-либо регистраций. Посему рекомендуем Вам добавить HQClub себе в закладки, а также подписаться на нашу ленту новостей, чтобы всегда быть в курсе всех событий. Ну а если Вы такой же синий фил, как и мы, то милости просим на наш форум. И в заключение, попробуйте зарегистрироваться, ведь не так это и сложно и займет всего лишь пару минут! Вот увидите, Вам у нас понравится и Вы вольетесь в наш дружный коллектив! Ну а пока - осматривайтесь = )
Мы рады Вам !





Бёрдмэн / Birdman (2014) BDRip-AVC

Оформил: Elheym | 4 марта 2015 - 11:30:43 | Комментариев: 3 | Обращений: 1147 {bookmarks_news}

http//lostpic.net/orig_images/c/1/f/c1facddcdf1bf300a21323f5efba.png

Информация о фильме:
Название: Бёрдмэн
Оригинальное название: Birdman
Год выхода: 2014
Жанр: драма, комедия
Режиссер: Алехандро Гонсалес Иньярриту / Alejandro González Iñárritu
В ролях: Майкл Китон, Эдвард Нортон, Эмма Стоун, Наоми Уоттс, Зак Галифианакис, Андреа Райзборо, Эми Райан, Линдси Дункан, Дэмиэн Янг, Джереми Шамос

О фильме: В центре сюжета бывший актер, некогда сыгравший роль популярного супергероя Бёрдмэна, и теперь, переступая через свое эго, он решает принять участие в новой бродвейской постановке с целью вернуть себе былую славу, блеск и величие.

http//rating.kinopoisk.ru/722827.gif http//tracker.0day.kiev.ua/imdb/imdb_tt2562232.gif

Релиз от - http//hqclub.net/images/hqclub.png
Автор рипа: Elheym

Выпущено: США, Канада, Grisbi Productions, Le, M Prods, New Regency Pictures, TSG Entertainment, Worldview Entertainment
Продолжительность: 01:59:17
Перевод 1: Профессиональный (полное дублирование) BD EUR
Перевод 2: Профессиональный (двухголосый, закадровый) Кубик в Кубе
Перевод 3: Одноголосый (закадровый) А. Матвеев aka Doctor_Joker
Перевод 4: Одноголосый (закадровый) Д. Есарев
Оригинальная аудиодорожка: английская
Субтитры: русские (полные х2, форсированные), украинские (полные, форсированные), английские (полные, полные SDH, полные SDH цветные)
Главы: присутствуют, сохранены оригинальные

Дополнительные аудиодорожки:
+ Профессиональный (двухголосый, закадровый) Кубик в Кубе
+ Одноголосый (закадровый) А. Матвеев aka Doctor_Joker
+ Одноголосый (закадровый) Д. Есарев

Файл:
Формат: MKV
Качество: BDRip-AVC (источник: http//lostpic.net/images/20a38122bcc5994b3cdae6e4b4b0.png + http//i28.fastpic.ru/big/2011/1013/a8/a3d28e80c9544f4c572189fc892ea8.gif / Blu-ray EUR / 1080p)
Видео: 1152x624 (1.85:1), 23.976 fps, MPEG-4 AVC, ~2200 kbps avg, 0.128 bit/pixel
Аудио #1: 48 kHz, AC3 Dolby Digital, 3/2 (L,C,R,l,r) + LFE ch, ~448 kbps avg (DUB)
Аудио #2: 48 kHz, AC3 Dolby Digital, 3/2 (L,C,R,l,r) + LFE ch, ~448 kbps avg (UKR.MVO.CІKAVA.ІDEJA)
Аудио #3: 48 kHz, AC3 Dolby Digital, 3/2 (L,C,R,l,r) + LFE ch, ~448 kbps avg (ENG)
Аудио #4: 48 kHz, AC3 Dolby Digital, 3/2 (L,C,R,l,r) + LFE ch, ~448 kbps avg (DVO.KVK) (отдельно)
Аудио #5: 48 kHz, AC3 Dolby Digital, 3/2 (L,C,R,l,r) + LFE ch, ~448 kbps avg (VO.MATVEEV) (отдельно)
Аудио #6: 48 kHz, AC3 Dolby Digital, 3/2 (L,C,R,l,r) + LFE ch, ~448 kbps avg (VO.ESAREV) (отдельно)
Размер: 2.95 GB
Сэмпл: скачать

http//lostpic.net/thumbs_images/e/8/5/e8520345ab2c87983842eda823811b2f.png http//lostpic.net/thumbs_images/4/8/2/25c6a62d2a4b3747a254a77288eb82.png http//lostpic.net/thumbs_images/3/a/7/3a7f1154e8e342b8a5af95617fa6b39e.png http//lostpic.net/thumbs_images/d/0/d/d0df2331b25f407e62d0741f4b5ffeec.png http//lostpic.net/thumbs_images/f/b/c/fbc2f04a29a7a250430c82bde1dd0ba0.png http//lostpic.net/thumbs_images/7/6/2/762677190b0bd6b2ace3f90daeab95b1.png

"MediaInfo"

Уникальный идентификатор : 242846400895745393796940518707376660390 (0xB6B283FA3E98CDB0904EEACFE15B9FA6)
Полное имя : Birdman.2014.TRIPLE.BDRip-AVC.x264.AC3.-HQCLUB.mkv
Формат : Matroska
Версия формата : Version 2
Размер файла : 2,96 Гбайт
Продолжительность : 1 ч. 59 м.
Общий поток : 3547 Кбит/сек
Дата кодирования : UTC 2015-03-04 07:13:26
Программа кодирования : mkvmerge v5.2.0 ('I can't explain') built on Dec 18 2011 18:12:03
Библиотека кодирования : libebml v1.2.3 + libmatroska v1.3.0
Attachements : Cover.png

Видео
Идентификатор : 1
Формат : AVC
Формат/Информация : Advanced Video Codec
Профиль формата : High@L4.0
Параметр CABAC формата : Да
Параметр ReFrames формата : 10 кадров
Идентификатор кодека : V_MPEG4/ISO/AVC
Продолжительность : 1 ч. 59 м.
Битрейт : 2200 Кбит/сек
Ширина : 1152 пикселя
Высота : 624 пикселя
Соотношение сторон : 1,85:1
Режим частоты кадров : Постоянный
Частота кадров : 23,976 кадра/сек
Цветовое пространство : YUV
Субдискретизация насыщенности : 4:2:0
Битовая глубина : 8 бит
Тип развёртки : Прогрессивная
Бит/(Пиксели*Кадры) : 0.128
Размер потока : 1,78 Гбайт (60%)
Заголовок : Бёрдмэн / Birdman (2014) BDRip-AVC by HQCLUB [Elheym]
Библиотека кодирования : x264 core 144 r2525kMod 40bb568
Настройки программы : cabac=1 / ref=10 / deblock=1:-1:-1 / analyse=0x3:0x113 / me=umh / subme=11 / psy=1 / fade_compensate=0.00 / psy_rd=0.86:0.00 / mixed_ref=1 / me_range=32 / chroma_me=1 / trellis=2 / 8x8dct=1 / cqm=0 / deadzone=21,11 / fast_pskip=1 / chroma_qp_offset=-2 / threads=6 / lookahead_threads=1 / sliced_threads=0 / nr=0 / decimate=1 / interlaced=0 / bluray_compat=0 / constrained_intra=0 / fgo=0 / bframes=13 / b_pyramid=2 / b_adapt=2 / b_bias=0 / direct=3 / weightb=1 / open_gop=0 / weightp=2 / keyint=230 / keyint_min=23 / scenecut=40 / intra_refresh=0 / rc_lookahead=80 / rc=2pass / mbtree=0 / bitrate=2200 / ratetol=1.0 / qcomp=0.80 / qpmin=0 / qpmax=69 / qpstep=4 / cplxblur=20.0 / qblur=0.5 / vbv_maxrate=20000 / vbv_bufsize=25000 / nal_hrd=none / filler=0 / ip_ratio=1.30 / pb_ratio=1.20 / aq=2:0.50 / zones=163880,171600,b=0.25
Язык : English
Default : Да
Forced : Нет

Аудио #1
Идентификатор : 2
Формат : AC-3
Формат/Информация : Audio Coding 3
Расширение режима : CM (complete main)
Параметр Endianness формата : Big
Идентификатор кодека : A_AC3
Продолжительность : 1 ч. 59 м.
Вид битрейта : Постоянный
Битрейт : 448 Кбит/сек
Каналы : 6 каналов
Расположение каналов : Front: L C R, Side: L R, LFE
Частота : 48,0 КГц
Битовая глубина : 16 бит
Метод сжатия : С потерями
Размер потока : 382 Мбайт (13%)
Заголовок : АС3 5.1 @ 448 kbps - Dub, BD EUR
Язык : Russian
Default : Нет
Forced : Нет

Аудио #2
Идентификатор : 3
Формат : AC-3
Формат/Информация : Audio Coding 3
Расширение режима : CM (complete main)
Параметр Endianness формата : Big
Идентификатор кодека : A_AC3
Продолжительность : 1 ч. 59 м.
Вид битрейта : Постоянный
Битрейт : 448 Кбит/сек
Каналы : 6 каналов
Расположение каналов : Front: L C R, Side: L R, LFE
Частота : 48,0 КГц
Битовая глубина : 16 бит
Метод сжатия : С потерями
Размер потока : 382 Мбайт (13%)
Заголовок : АС3 5.1 @ 448 kbps - MVO, Cіkava Іdeja
Язык : Ukrainian
Default : Нет
Forced : Нет

Аудио #3
Идентификатор : 4
Формат : AC-3
Формат/Информация : Audio Coding 3
Расширение режима : CM (complete main)
Параметр Endianness формата : Big
Идентификатор кодека : A_AC3
Продолжительность : 1 ч. 59 м.
Вид битрейта : Постоянный
Битрейт : 448 Кбит/сек
Каналы : 6 каналов
Расположение каналов : Front: L C R, Side: L R, LFE
Частота : 48,0 КГц
Битовая глубина : 16 бит
Метод сжатия : С потерями
Размер потока : 382 Мбайт (13%)
Заголовок : АС3 5.1 @ 448 kbps - Original
Язык : English
Default : Нет
Forced : Нет

Текст #1
Идентификатор : 5
Формат : UTF-8
Идентификатор кодека : S_TEXT/UTF8
Идентификатор кодека/Информация : UTF-8 Plain Text
Заголовок : Full, BD
Язык : Russian
Default : Нет
Forced : Нет

Текст #2
Идентификатор : 6
Формат : UTF-8
Идентификатор кодека : S_TEXT/UTF8
Идентификатор кодека/Информация : UTF-8 Plain Text
Заголовок : Full, iTunes
Язык : Russian
Default : Нет
Forced : Нет

Текст #3
Идентификатор : 7
Формат : UTF-8
Идентификатор кодека : S_TEXT/UTF8
Идентификатор кодека/Информация : UTF-8 Plain Text
Заголовок : Forced
Язык : Russian
Default : Нет
Forced : Нет

Текст #4
Идентификатор : 8
Формат : UTF-8
Идентификатор кодека : S_TEXT/UTF8
Идентификатор кодека/Информация : UTF-8 Plain Text
Заголовок : Full
Язык : Ukrainian
Default : Нет
Forced : Нет

Текст #5
Идентификатор : 9
Формат : UTF-8
Идентификатор кодека : S_TEXT/UTF8
Идентификатор кодека/Информация : UTF-8 Plain Text
Заголовок : Forced
Язык : Ukrainian
Default : Нет
Forced : Нет

Текст #6
Идентификатор : 10
Формат : UTF-8
Идентификатор кодека : S_TEXT/UTF8
Идентификатор кодека/Информация : UTF-8 Plain Text
Заголовок : Full
Язык : English
Default : Нет
Forced : Нет

Текст #7
Идентификатор : 11
Формат : UTF-8
Идентификатор кодека : S_TEXT/UTF8
Идентификатор кодека/Информация : UTF-8 Plain Text
Заголовок : Full SDH
Язык : English
Default : Нет
Forced : Нет

Текст #8
Идентификатор : 12
Формат : UTF-8
Идентификатор кодека : S_TEXT/UTF8
Идентификатор кодека/Информация : UTF-8 Plain Text
Заголовок : Full SDH Colored
Язык : English
Default : Нет
Forced : Нет

Меню
00:00:00.000 : :Chapter 01
...
01:59:16.941 : :Chapter 56

"x264 log"

x264 [info]: frame I:761 Avg QP:17.00 size: 61340
x264 [info]: frame P:38124 Avg QP:19.38 size: 23304
x264 [info]: frame B:132716 Avg QP:21.02 size: 7780

x264 [info]: consecutive B-frames: 1.8% 3.5% 11.0% 15.3% 19.5% 40.9% 3.3% 0.7% 0.7% 0.5% 0.4% 1.1% 0.5% 0.8%

x264 [info]: ref P L0: 52.9% 12.4% 17.2% 4.8% 3.9% 2.6% 2.4% 1.2% 1.2% 1.2% 0.2% 0.0%
x264 [info]: ref B L0: 82.6% 9.6% 3.5% 1.6% 1.0% 0.8% 0.6% 0.3% 0.1%
x264 [info]: ref B L1: 94.8% 5.2%


Цитата:
Українською мовою озвучено студією Цікава ідея на замовлення HURTOM
Перевод Алексея Матвеева доступен благодаря: будулайроманов, Shrooms, 7654, ACID, dikii, Wa1ker, vupen, spiralarch, Loki1982, Alex_digg, save2x2, sivservik, olddrinker, Kruj0k, timur, GodFather, Salinger. Работа со звуком: Переводман. Английские субтитры были не ахти, потому работа велась со сценарием картины, что позволило тщательнее вникнуть в процесс фильма-пьесы-меняющейся-на-ходу. Перевод монолога Макбета, декламируемый в фильме, наличествует в версии Пастернака. На этом, вроде бы, всё.
Перевод Дмитрия Есарева доступен благодаря: mihey10. Работа со звуком: mihaildns.
Перевод Кубик в Кубе содержит ненормативную лексику. Работа со звуком messafan.


Ссылки для скачивания:

http//bt.hqclub.net/files/ok.png Торрент: Бёрдмэн / Birdman (2014) BDRip-AVC

Лучшая онлайн игра!


Публикация материалов сайта на сторонних ресурсах возможна только в неизменном виде.


Обсудить релиз на форуме

Вас также может заинтересовать:


  • 5
 (Голосов: 2)


Распечатать новость на принтере Драма, Комедия
Обновлено: 27.03.2015 - 14:09

КОММЕНТАРИИ

 №1. ru4lan

Статус: Кинокритик | Новостей: 0 | Комментариев: 2736
ru4lan ну раз Оскара взял, то так уж и быть посмотрю
~~~

4.03.2015 - 22:51   цитировать  

 №2. RedGeneral28

Статус: Новичок | Новостей: 0 | Комментариев: 48
RedGeneral28 Ура! Не ожидал,что так скоро появится. Спасибо)
~~~

5.03.2015 - 00:28   цитировать  

 №3. Elheym

Статус: Стажер | Новостей: 320 | Комментариев: 70
Добавлен перевод:
Профессиональный (двухголосый, закадровый) Кубик в Кубе
Благодарность - yours_truly
~~~

27.03.2015 - 14:03   цитировать