Вас Приветствует Релиз-группа HQCLUB


Помощь ресурсу, очень ВАЖНО!!!



.


WELCOME
Добро пожаловать в наше интернет - сообщество!

Всех нас объединяет одна страсть - страсть к высококачественному кино. А это наш сайт. Ежедневно здесь мы публикуем десятки качественных, свежих, а порой и эксклюзивных релизов, которые Вы можете скачать совершенно бесплатно и без каких-либо регистраций. Посему рекомендуем Вам добавить HQClub себе в закладки, а также подписаться на нашу ленту новостей, чтобы всегда быть в курсе всех событий. Ну а если Вы такой же синий фил, как и мы, то милости просим на наш форум. И в заключение, попробуйте зарегистрироваться, ведь не так это и сложно и займет всего лишь пару минут! Вот увидите, Вам у нас понравится и Вы вольетесь в наш дружный коллектив! Ну а пока - осматривайтесь = )
Мы рады Вам !





Неприкасаемые / 1+1 / Intouchables (2011) BDRip-AVC

Оформил: Gellard | 1 июня 2012 - 00:01:20 | Комментариев: 1 | Обращений: 2127 {bookmarks_news}

http//lostpic.net/images/63ed92d61701735cdb1dadd8d22ff0.png

Информация о фильме:
Название: Неприкасаемые
Оригинальное название: Intouchables
Год выхода: 2011
Жанр: драма, комедия
Режиссеры: Оливье Накаш / Olivier Nakache, Эрик Толедано / Eric Toledano
В ролях: Франсуа Клюзе, Омар Си, Анн Ле Ни, Одри Флеро, Клотильд Молле, Альба Гайя Крагеде Беллуджи, Сирил Менди, Кристиан Амери, Грегуар Эстерманн, Жозефин де Мо

О фильме: Пострадав в результате несчастного случая, богатый аристократ Филипп нанимает в помощники человека, который менее всего подходит для этой работы, - молодого жителя предместья Дрисса, только что освободившегося из тюрьмы. Несмотря на то, что Филипп прикован к инвалидному креслу, Дриссу удается привнести в размеренную жизнь аристократа дух приключений.

http//www.kinopoisk.ru/rating/535341.gif http//imdb.snick.ru/ratefor/03/tt1675434.png

Релиз от - http//hqclub.net/images/hqclub.png
Автор рипа: Deep Fusion

Выпущено: Франция
Продолжительность: ~01:52:02
Перевод: Профессиональный (полное дублирование) |R5| + Профессиональный (двухголосный, закадровый) |Ozz.tv| + Любительский (одноголосный) |zamez| + Оригинал (французский)
Субтитры: Русские (El Brujo, Татьяны Фалимоновой), Французские, Английские

Файл:
Формат: MKV
Качество: BDRip-AVC (Источник: Radical / BDRemux / 1080p)
Видео: 1024x554 (1,85:1), 24.000 fps, x264@L4.1, crf ~3059 kbps avg, 0.225 bit/pixel
Звук #1: 48 kHz, AC3 Dolby Digital, 3/2 (L,C,R,l,r) + LFE ch, ~448.00 kbps (DUB) R5
Звук #2: 48 kHz, AC3 Dolby Digital, 3/2 (L,C,R,l,r) + LFE ch, ~448.00 kbps (DVO) Ozz.tv
Звук #3: 48 kHz, AC3 Dolby Digital, 3/2 (L,C,R,l,r) + LFE ch, ~448.00 kbps (VO) zamez
Звук #4: 48 kHz, AC3 Dolby Digital, 3/2 (L,C,R,l,r) + LFE ch, ~448.00 kbps (FRE)
Размер: 3966.3 Mb
Скачать: Сэмпл

http//lostpic.net/thumbs/9fbc92ce6d9beec600c28c5f3021fb99.png http//lostpic.net/thumbs/a454713dfc9da54b61ded3e03123ccc7.png http//lostpic.net/thumbs/12b84e63bf16551c6eb32945b69836f4.png http//lostpic.net/thumbs/9bce932533b88c5eb02da636dde03e5d.png http//lostpic.net/thumbs/91b24d770309f67b69810c7e95ed33ad.png

"MediaInfo"
Формат : Matroska
Версия формата : Version 2
Размер файла : 3,87 Гбайт
Продолжительность : 1 ч. 52 м.
Общий поток : 4950 Кбит/сек
Дата кодирования : UTC 2012-05-31 20:36:46
Программа кодирования : mkvmerge v5.5.0 ('Healer') built on Apr 6 2012 21:43:24
Библиотека кодирования : libebml v1.2.3 + libmatroska v1.3.0

Видео
Идентификатор : 1
Формат : AVC
Формат/Информация : Advanced Video Codec
Профиль формата : High@L4.1
Параметр CABAC формата : Да
Параметр ReFrames формата : 12 кадров
Идентификатор кодека : V_MPEG4/ISO/AVC
Продолжительность : 1 ч. 52 м.
Битрейт : 3059 Кбит/сек
Ширина : 1024 пикселя
Высота : 554 пикселя
Соотношение сторон : 1,85:1
Частота кадров : 24,000 кадра/сек
Цветовое пространство : YUV
Субдискретизация насыщенности : 4:2:0
Битовая глубина : 8 бит
Тип развёртки : Прогрессивная
Бит/(Пиксели*Кадры) : 0.225
Размер потока : 2,39 Гбайт (62%)
Заголовок : Неприкасаемые / 1+1 / Intouchables (2011) BDRip-AVC | HQCLUB
Библиотека кодирования : x264 core 125 r2200 999b753
Настройки программы : cabac=1 / ref=12 / deblock=1:-3:-3 / analyse=0x3:0x113 / me=umh / subme=11 / psy=1 / psy_rd=1.00:0.00 / mixed_ref=1 / me_range=48 / chroma_me=1 / trellis=2 / 8x8dct=1 / cqm=0 / deadzone=21,11 / fast_pskip=0 / chroma_qp_offset=-4 / threads=6 / lookahead_threads=1 / sliced_threads=0 / nr=0 / decimate=1 / interlaced=0 / bluray_compat=0 / constrained_intra=0 / bframes=14 / b_pyramid=2 / b_adapt=2 / b_bias=0 / direct=1 / weightb=1 / open_gop=0 / weightp=2 / keyint=240 / keyint_min=24 / scenecut=40 / intra_refresh=0 / rc_lookahead=60 / rc=crf / mbtree=0 / crf=17.9 / qcomp=0.60 / qpmin=10 / qpmax=69 / qpstep=4 / vbv_maxrate=62500 / vbv_bufsize=50000 / crf_max=0.0 / nal_hrd=none / ip_ratio=1.40 / pb_ratio=1.30 / aq=1:0.70
Язык : English
Default : Да
Forced : Нет

Аудио #1
Идентификатор : 2
Формат : AC-3
Формат/Информация : Audio Coding 3
Расширение режима : CM (complete main)
Параметр Endianness формата : Big
Идентификатор кодека : A_AC3
Продолжительность : 1 ч. 52 м.
Вид битрейта : Постоянный
Битрейт : 448 Кбит/сек
Каналы : 6 каналов
Расположение каналов : Front: L C R, Side: L R, LFE
Частота : 48,0 КГц
Битовая глубина : 16 бит
Метод сжатия : С потерями
Размер потока : 359 Мбайт (9%)
Заголовок : Профессиональный (полное дублирование) |R5|
Язык : Russian
Default : Да
Forced : Нет

Аудио #2
Идентификатор : 3
Формат : AC-3
Формат/Информация : Audio Coding 3
Расширение режима : CM (complete main)
Параметр Endianness формата : Big
Идентификатор кодека : A_AC3
Продолжительность : 1 ч. 52 м.
Вид битрейта : Постоянный
Битрейт : 448 Кбит/сек
Каналы : 6 каналов
Расположение каналов : Front: L C R, Side: L R, LFE
Частота : 48,0 КГц
Битовая глубина : 16 бит
Метод сжатия : С потерями
Размер потока : 359 Мбайт (9%)
Заголовок : Профессиональный (двухголосный, закадровый) |Ozz.tv|
Язык : Russian
Default : Нет
Forced : Нет

Аудио #3
Идентификатор : 4
Формат : AC-3
Формат/Информация : Audio Coding 3
Расширение режима : CM (complete main)
Параметр Endianness формата : Big
Идентификатор кодека : A_AC3
Продолжительность : 1 ч. 52 м.
Вид битрейта : Постоянный
Битрейт : 448 Кбит/сек
Каналы : 6 каналов
Расположение каналов : Front: L C R, Side: L R, LFE
Частота : 48,0 КГц
Битовая глубина : 16 бит
Метод сжатия : С потерями
Размер потока : 359 Мбайт (9%)
Заголовок : Любительский (одноголосный) |zamez|
Язык : Russian
Default : Нет
Forced : Нет

Аудио #4
Идентификатор : 5
Формат : AC-3
Формат/Информация : Audio Coding 3
Расширение режима : CM (complete main)
Параметр Endianness формата : Big
Идентификатор кодека : A_AC3
Продолжительность : 1 ч. 52 м.
Вид битрейта : Постоянный
Битрейт : 448 Кбит/сек
Каналы : 6 каналов
Расположение каналов : Front: L C R, Side: L R, LFE
Частота : 48,0 КГц
Битовая глубина : 16 бит
Метод сжатия : С потерями
Размер потока : 359 Мбайт (9%)
Заголовок : Оригинал (французский)
Язык : French
Default : Нет
Forced : Нет

Текст #1
Идентификатор : 6
Формат : UTF-8
Идентификатор кодека : S_TEXT/UTF8
Идентификатор кодека/Информация : UTF-8 Plain Text
Заголовок : FALIMONOVA
Язык : Russian
Default : Да
Forced : Нет

Текст #2
Идентификатор : 7
Формат : UTF-8
Идентификатор кодека : S_TEXT/UTF8
Идентификатор кодека/Информация : UTF-8 Plain Text
Заголовок : El Brujo
Язык : Russian
Default : Нет
Forced : Нет

Текст #3
Идентификатор : 8
Формат : UTF-8
Идентификатор кодека : S_TEXT/UTF8
Идентификатор кодека/Информация : UTF-8 Plain Text
Язык : French
Default : Нет
Forced : Нет

Текст #4
Идентификатор : 9
Формат : UTF-8
Идентификатор кодека : S_TEXT/UTF8
Идентификатор кодека/Информация : UTF-8 Plain Text
Язык : English
Default : Нет
Forced : Нет
"x264 log"
---[NoImage] x264 [info]: frame I:1218 Avg QP:17.40 size: 84718
---[NoImage] x264 [info]: frame P:30216 Avg QP:18.91 size: 35726
---[NoImage] x264 [info]: frame B:129890 Avg QP:21.26 size: 11303
---[NoImage] x264 [info]: consecutive B-frames: 1.2% 1.2% 4.3% 11.8% 14.0% 51.9% 6.5% 1.3% 3.0% 1.6% 1.0% 0.7% 0.4% 0.9% 0.4%
---[NoImage] x264 [info]: mb I I16..4: 5.2% 77.7% 17.2%
---[NoImage] x264 [info]: mb P I16..4: 0.4% 9.6% 1.1% P16..4: 29.4% 37.9% 15.8% 0.0% 0.0% skip: 5.8%
---[NoImage] x264 [info]: mb B I16..4: 0.0% 0.6% 0.1% B16..8: 36.1% 22.0% 5.0% direct: 5.8% skip:30.4% L0:44.2% L1:44.6% BI:11.3%
---[NoImage] x264 [info]: 8x8 transform intra:84.1% inter:57.5%
---[NoImage] x264 [info]: coded y,uvDC,uvAC intra: 93.2% 88.2% 75.2% inter: 29.4% 23.2% 7.5%
---[NoImage] x264 [info]: i16 v,h,dc,p: 41% 14% 14% 31%
---[NoImage] x264 [info]: i8 v,h,dc,ddl,ddr,vr,hd,vl,hu: 9% 6% 7% 11% 15% 14% 14% 12% 12%
---[NoImage] x264 [info]: i4 v,h,dc,ddl,ddr,vr,hd,vl,hu: 12% 7% 5% 9% 16% 15% 13% 12% 11%
---[NoImage] x264 [info]: i8c dc,h,v,p: 47% 19% 18% 16%
---[NoImage] x264 [info]: Weighted P-Frames: Y:2.1% UV:1.0%
---[NoImage] x264 [info]: ref P L0: 40.3% 9.9% 19.2% 6.6% 6.3% 4.1% 4.2% 2.1% 2.2% 1.7% 1.8% 1.5% 0.1% 0.0%
---[NoImage] x264 [info]: ref B L0: 68.0% 13.1% 6.5% 3.5% 2.4% 2.1% 1.6% 1.1% 0.9% 0.5% 0.2%
---[NoImage] x264 [info]: ref B L1: 92.2% 7.8%
---[NoImage] x264 [info]: kb/s:3154.83


http//bt.hqclub.net/files/ok.png Торрент: Неприкасаемые / 1+1 / Intouchables (2011) BDRip-AVC

Лучшая онлайн игра!


Публикация материалов сайта на сторонних ресурсах возможна только в неизменном виде.


Обсудить релиз на форуме

Вас также может заинтересовать:


  • 5
 (Голосов: 10)


Распечатать новость на принтере Драма, Комедия

КОММЕНТАРИИ

 №1. hellohqclub

Статус: Новичок | Новостей: 0 | Комментариев: 1
hellohqclub Супер!! Большое спасибо! Очень сильное и светлое кино! good2
~~~

18.11.2012 - 18:01   цитировать