Драма, Криминал, Сериал » Однажды ночью [Сезон 1] / The Night Of (2016) [Season 1] BDRip-AVC


10 мая 2018 - 15:53:07 от Elheym

http//img12.lostpic.net/2018/05/10/61c2c5643866f8cd5d343ff86b92d40a.jpg



Информация о сериале:
Название: Однажды ночью
Оригинальное название: The Night Of
Год выхода: 2016
Жанр: драма, криминал
Создатель: Стивен Зеллиан, Ричард Прайс
Композитор: Джефф Руссо

О сериале: После бурной ночи с незнакомкой парень просыпается с её трупом у себя под боком, и все обвинения падают на него. http//img12.lostpic.net/2018/05/10/61c2c5643866f8cd5d343ff86b92d40a.jpg

Информация о сериале:
Название: Однажды ночью
Оригинальное название: The Night Of
Год выхода: 2016
Жанр: драма, криминал
Создатель: Стивен Зеллиан, Ричард Прайс
Композитор: Джефф Руссо
В ролях: Джон Туртурро, Риз Ахмед, Майкл Кеннет Уильямс, Билл Кэмп, Дженни Берлин, Пурна Джаганнатан, Пейман Моаади, Сиам М. Лафи, Амара Каран, Пол Спаркс

О сериале: После бурной ночи с незнакомкой парень просыпается с её трупом у себя под боком, и все обвинения падают на него.

"Описание серий"


«Что произошло...»



http//rating.kinopoisk.ru/733419.gif
http//tracker.0day.kiev.ua/imdb/imdb_tt2401256.gif

Релиз от - http//i62.fastpic.ru/big/2014/0702/3e/4ca0c27a93261c4d900a30afd0a03f3e.png http//img11.lostpic.net/2016/12/26/f2565a587874b4bb3d1c7d8ac2f0da47.png
Энкод: Elheym

Выпущено: США ‖ Bad Wolf, BBC Drama Productions, BBC Worldwide Productions, Film Rites, Home Box Office (HBO)
Продолжительность: ~57-96 минут эпизод
Перевод: Профессиональный (многоголосый, закадровый) NewStudio [Ненорматив]
Перевод: Профессиональный (многоголосый, закадровый) Jaskier
Оригинальная аудиодорожка: английская
Субтитры: русские (полные: Amedia; форсированные: "Multi"), английские (полные, SDH, SDH цветные)

Файл:
Формат: MKV
Качество: BDRip-AVC (источник: [The Night Of 2016 1080p GER Blu-ray AVC DTS-HD MA 5.1-UltraHD] спасибо: dancingdemon )
Видео: 1056x594 (16:9), 23.976 fps, MPEG-4 AVC, ~3000 kbps avg, 0.197 bit/pixel
Аудио #1: 48 kHz, AC3 Dolby Digital, 3/2 (L,C,R,l,r) + LFE ch, ~384 kbps avg (MVO.NEWSTUDIO)
Аудио #2: 48 kHz, AC3 Dolby Digital, 3/2 (L,C,R,l,r) + LFE ch, ~384 kbps avg (MVO.JASKIER)
Аудио #3: 48 kHz, AC3 Dolby Digital, 3/2 (L,C,R,l,r) + LFE ch, ~448 kbps avg (ENG)
Сэмпл: скачать
Общий размер: 15.44 GB

"MediaInfo"

Уникальный идентификатор : 177222225924857195839315423319616994857 (0x8553C25918066FD2800CAB4C4D413E29)
Полное имя : The.Night.Of.S01.E01.The.Beach.-HQCLUB.mkv
Формат : Matroska
Версия формата : Version 4 / Version 2
Размер файла : 2,30 Гбайт
Продолжительность : 1 ч. 18 м.
Общий поток : 4185 Кбит/сек
Название фильма : 01: Пляж / The Beach
Дата кодирования : UTC 2018-04-28 15:18:45
Программа кодирования : mkvmerge v8.2.0 ('World of Adventure') 64bit
Библиотека кодирования : libebml v1.3.1 + libmatroska v1.4.2
Обложка : Yes
Attachments : cover.jpg

Видео
Идентификатор : 1
Формат : AVC
Формат/Информация : Advanced Video Codec
Профиль формата : High@L4
Настройки формата : CABAC / 13 Ref Frames
Параметр CABAC формата : Да
Параметр RefFrames формата : 13 кадров
Идентификатор кодека : V_MPEG4/ISO/AVC
Продолжительность : 1 ч. 18 м.
Битрейт : 2966 Кбит/сек
Ширина : 1056 пикселей
Высота : 594 пикселя
Соотношение сторон : 16:9
Режим частоты кадров : Постоянный
Частота кадров : 23,976 (24000/1001) кадра/сек
Цветовое пространство : YUV
Субдискретизация насыщенности : 4:2:0
Битовая глубина : 8 бит
Тип развёртки : Прогрессивная
Бит/(Пиксели*Кадры) : 0.197
Размер потока : 1,63 Гбайт (71%)
Заголовок : Однажды ночью [Сезон 1] / The Night Of [Season 1] (2016) BDRip-AVC by Elheym [HQCLUB]
Библиотека кодирования : x264 core 155 r2867+82 a249126 t_mod_Custom_2 [8-bit@all X86_64]
Настройки программы : cabac=1 / ref=13 / deblock=1:-3:-2 / analyse=0x3:0x133 / me=umh / subme=11 / psy=1 / fade_compensate=0.00 / psy_rd=1.00:0.00 / mixed_ref=1 / me_range=32 / chroma_me=1 / trellis=2 / 8x8dct=1 / cqm=0 / deadzone=21,11 / fast_pskip=0 / chroma_qp_offset=-2 / threads=6 / lookahead_threads=1 / sliced_threads=0 / nr=0 / decimate=0 / interlaced=0 / bluray_compat=0 / constrained_intra=0 / fgo=0 / bframes=12 / b_pyramid=2 / b_adapt=2 / b_bias=0 / direct=3 / weightb=1 / open_gop=0 / weightp=2 / keyint=240 / keyint_min=23 / scenecut=40 / intra_refresh=0 / rc_lookahead=60 / rc=crf / mbtree=0 / crf=17.5000 / qcomp=0.65 / qpmin=0:0:0 / qpmax=69:69:69 / qpstep=4 / vbv_maxrate=20000 / vbv_bufsize=25000 / crf_max=0.0 / nal_hrd=none / filler=0 / ip_ratio=1.40 / pb_ratio=1.30 / aq=3:0.80 / aq-sensitivity=10.00 / aq-factor=1.00:1.00:1.00 / aq2=0 / aq3=0 / zones=195,375,crf=16/376,385,crf=14/386,644,crf=16/645,676,crf=14/677,857,crf=16/858,881,crf=14/882,1045,crf=16/1046,1058,crf=14/1059,1379,crf=16/1380,1394,crf=14/1395,1873,crf=16/1874,1986,crf=13.5/1987,2111,crf=16/3234,4371,crf=16/4456,4470,crf=15/10125,10222,crf=16/11384,15302,crf=16.7/37918,37960,crf=16/38070,38262,crf=16/39578,39730,crf=16/39865,39884,crf=16/62070,62693,crf=16/64376,64470,crf=16/64499,64724,crf=16/64894,64926,crf=16/76106,76387,crf=16/76843,76912,crf=16/77214,77400,crf=16/77629,77718,crf=16/78053,78136,crf=16/78594,78678,crf=16/78827,78938,crf=16/88888,88964,crf=16/90583,90744,crf=16/93260,93272,crf=16/93352,93362,crf=16/93832,94090,crf=16/94285,96051,crf=16.5/104060,104342,crf=16/108837,108901,crf=16/109017,109301,crf=16/109418,109640,crf=16/112881,112928,crf=15
Язык : English
Default : Да
Forced : Да
Цветовой диапазон : Limited
Основные цвета : BT.709
Характеристики трансфера : BT.709
Коэффициенты матрицы : BT.709

Аудио #1
Идентификатор : 2
Формат : AC-3
Формат/Информация : Audio Coding 3
Идентификатор кодека : A_AC3
Продолжительность : 1 ч. 18 м.
Вид битрейта : Постоянный
Битрейт : 384 Кбит/сек
Каналы : 6 каналов
Расположение каналов : Front: L C R, Side: L R, LFE
Частота : 48,0 КГц
Частота кадров : 31,250 кадров/сек (1536 SPF)
Битовая глубина : 16 бит
Метод сжатия : С потерями
Размер потока : 216 Мбайт (9%)
Заголовок : AC3 5.1 @ 384 kbps - MVO, NewStudio [Uncensored]
Язык : Russian
ServiceKind/String : Complete Main
Default : Нет
Forced : Нет

Аудио #2
Идентификатор : 3
Формат : AC-3
Формат/Информация : Audio Coding 3
Идентификатор кодека : A_AC3
Продолжительность : 1 ч. 18 м.
Вид битрейта : Постоянный
Битрейт : 384 Кбит/сек
Каналы : 6 каналов
Расположение каналов : Front: L C R, Side: L R, LFE
Частота : 48,0 КГц
Частота кадров : 31,250 кадров/сек (1536 SPF)
Битовая глубина : 16 бит
Метод сжатия : С потерями
Размер потока : 216 Мбайт (9%)
Заголовок : AC3 5.1 @ 384 kbps - MVO, Jaskier
Язык : Russian
ServiceKind/String : Complete Main
Default : Нет
Forced : Нет

Аудио #3
Идентификатор : 4
Формат : AC-3
Формат/Информация : Audio Coding 3
Идентификатор кодека : A_AC3
Продолжительность : 1 ч. 18 м.
Вид битрейта : Постоянный
Битрейт : 448 Кбит/сек
Каналы : 6 каналов
Расположение каналов : Front: L C R, Side: L R, LFE
Частота : 48,0 КГц
Частота кадров : 31,250 кадров/сек (1536 SPF)
Битовая глубина : 16 бит
Метод сжатия : С потерями
Размер потока : 252 Мбайт (11%)
Заголовок : AC3 5.1 @ 448 kbps - Original
Язык : English
ServiceKind/String : Complete Main
Default : Нет
Forced : Нет

Текст #1
Идентификатор : 5
Формат : UTF-8
Идентификатор кодека : S_TEXT/UTF8
Идентификатор кодека/Информация : UTF-8 Plain Text
Продолжительность : 1 ч. 15 м.
Битрейт : 73 бит/сек
ElementCount : 756
Размер потока : 40,6 Кбайт (0%)
Заголовок : Full, Amedia
Язык : Russian
Default : Нет
Forced : Нет

Текст #2
Идентификатор : 6
Формат : UTF-8
Идентификатор кодека : S_TEXT/UTF8
Идентификатор кодека/Информация : UTF-8 Plain Text
Продолжительность : 36 м. 27 с.
Битрейт : 0 бит/сек
ElementCount : 5
Размер потока : 247 байт (0%)
Заголовок : Forced
Язык : Russian
Default : Да
Forced : Да

Текст #3
Идентификатор : 7
Формат : UTF-8
Идентификатор кодека : S_TEXT/UTF8
Идентификатор кодека/Информация : UTF-8 Plain Text
Продолжительность : 1 ч. 15 м.
Битрейт : 53 бит/сек
ElementCount : 799
Размер потока : 29,6 Кбайт (0%)
Заголовок : Full
Язык : English
Default : Нет
Forced : Нет

Текст #4
Идентификатор : 8
Формат : UTF-8
Идентификатор кодека : S_TEXT/UTF8
Идентификатор кодека/Информация : UTF-8 Plain Text
Продолжительность : 1 ч. 15 м.
Битрейт : 56 бит/сек
ElementCount : 847
Размер потока : 31,0 Кбайт (0%)
Заголовок : SDH
Язык : English
Default : Нет
Forced : Нет

Текст #5
Идентификатор : 9
Формат : UTF-8
Идентификатор кодека : S_TEXT/UTF8
Идентификатор кодека/Информация : UTF-8 Plain Text
Продолжительность : 1 ч. 15 м.
Битрейт : 64 бит/сек
ElementCount : 847
Размер потока : 35,5 Кбайт (0%)
Заголовок : SDH Colored
Язык : English
Default : Нет
Forced : Нет

Меню
00:00:00.000 : en:Chapter 01
00:01:30.090 : en:Chapter 02
00:06:21.589 : en:Chapter 03
00:14:54.101 : en:Chapter 04
00:25:22.103 : en:Chapter 05
00:33:50.862 : en:Chapter 06
00:42:49.316 : en:Chapter 07
00:51:00.307 : en:Chapter 08
01:01:57.130 : en:Chapter 09
01:10:16.545 : en:Chapter 10
01:17:33.482 : en:Chapter 11
01:18:38.171 : en:Chapter 12

"x264 log"

x264 [info]: frame I:862 Avg QP:12.47 size: 71988
x264 [info]: frame P:21108 Avg QP:14.63 size: 31014
x264 [info]: frame B:91153 Avg QP:16.59 size: 11330

x264 [info]: consecutive B-frames: 1.3% 1.1% 5.1% 8.9% 14.5% 53.1% 7.4% 2.2% 1.9% 1.2% 1.4% 0.9% 1.1%

x264 [info]: ref P L0: 39.2% 4.7% 19.0% 7.5% 7.3% 4.7% 5.0% 2.4% 2.6% 1.9% 2.1% 1.6% 1.8% 0.1% 0.0%
x264 [info]: ref B L0: 58.1% 14.2% 8.3% 4.8% 3.6% 3.1% 2.5% 1.7% 1.4% 1.3% 0.8% 0.4%
x264 [info]: ref B L1: 92.1% 7.9%


http//img12.lostpic.net/2018/04/28/fd37775aee12b2445f731406c514cd.th.png
http//img12.lostpic.net/2018/04/28/00a89447268413b6ad510262db9045.th.png http//img12.lostpic.net/2018/04/28/7e704ee9abb7b0b7c83f697059.th.png http//img12.lostpic.net/2018/04/28/76ba42624736c4a80f91106702bb01.th.png http//img12.lostpic.net/2018/04/28/e61cfc3ce3ea8c1d09a1bc0a21f4cb7e.th.png
http//img12.lostpic.net/2018/04/28/d86faeec4053251fb097d0cccc39.th.png http//img12.lostpic.net/2018/04/28/e8744f316a1607b07642853e6ef1bf2c.th.png http//img12.lostpic.net/2018/04/28/b33da832074d9be5e5a71dfc3d1e3102.th.png http//img12.lostpic.net/2018/04/28/37efb1a7b6c712fdb67e3d7c0396af47.th.png
http//img12.lostpic.net/2018/04/28/ead5c47416a17faf9acce4564c11cb.th.png http//img12.lostpic.net/2018/04/28/f55d65946edfbb9bf21b2229b55dac11.th.png http//img12.lostpic.net/2018/04/28/619420b4c1aa175d7036a8d0cbbb9f.th.png http//img12.lostpic.net/2018/04/28/3fa61d5f97ea6aa46bf7a06a28bdd3.th.png



Цитата:

Сохранены оригинальные главы.
В видеоряде устранены бандинг и диртилайнс.
В озвучке от Jaskier была удалена реклама.
Русские (полные) субтитры от Amedia подверглись значительным изменениям: точной ручной синхронизации, замене нелепого речевого оборота на вменяемый, оптимизации длины строк, коррекции строк с диалогами (не к месту добавленые "-").
Русские форсированные субтитры - "Multi" - получены путем анализа известных переводов.


Ссылки для скачивания:

http//bt.hqclub.net/files/ok.png Торрент: Однажды ночью [Сезон 1] / The Night Of (2016) [Season 1] BDRip-AVC