Вас Приветствует Релиз-группа HQCLUB


Помощь ресурсу, очень ВАЖНО!!!



.


WELCOME
Добро пожаловать в наше интернет - сообщество!

Всех нас объединяет одна страсть - страсть к высококачественному кино. А это наш сайт. Ежедневно здесь мы публикуем десятки качественных, свежих, а порой и эксклюзивных релизов, которые Вы можете скачать совершенно бесплатно и без каких-либо регистраций. Посему рекомендуем Вам добавить HQClub себе в закладки, а также подписаться на нашу ленту новостей, чтобы всегда быть в курсе всех событий. Ну а если Вы такой же синий фил, как и мы, то милости просим на наш форум. И в заключение, попробуйте зарегистрироваться, ведь не так это и сложно и займет всего лишь пару минут! Вот увидите, Вам у нас понравится и Вы вольетесь в наш дружный коллектив! Ну а пока - осматривайтесь = )
Мы рады Вам !





Общак / The Drop (2014) BDRip-AVC

Оформил: Elheym | 22 января 2015 - 02:26:14 | Обращений: 846 {bookmarks_news}

http//lostpic.net/orig_images/0/d/4/0de51bc56b3fbbd6b01f34a14220c2.jpg

Информация о фильме:
Название: Общак
Оригинальное название: The Drop
Год выхода: 2014
Жанр: драма, криминал
Режиссер: Михаэль Р. Роскам / Michaël R. Roskam
В ролях: Том Харди, Нуми Рапас, Джеймс Гандольфини, Маттиас Шонартс, Джон Ортис, Элизабет Родригес, Майкл Аронов, Морган Спектор, Майкл Эспер, Росс Бикелл

О фильме: Боб Сагиновски оказывается в центре ограбления, из-за расследования которого может всплыть прошлое района, когда друзья, семьи и заклятые враги — все работали вместе, чтобы выжить…

http//rating.kinopoisk.ru/5060.gif http//tracker.0day.kiev.ua/imdb/imdb_tt1600196.gif

Релиз от - http//hqclub.net/images/hqclub.png
Автор рипа: Elheym

Выпущено: США, Chernin Entertainment, Fox Searchlight Pictures
Продолжительность: 01:46:44
Перевод 1: Профессиональный (полное дублирование) BD EUR
Перевод 2: Одноголосый (закадровый) Д. Есарев
Оригинальная аудиодорожка: английская
Субтитры: русские (полные), украинские (полные), английские (полные, полные SDH, полные SDH цветные)
Главы: присутствуют, сохранены оригинальные

Дополнительные аудиодорожки:
+ Одноголосый (закадровый) Д. Есарев

Файл:
Формат: MKV
Качество: BDRip-AVC (источник: http//i28.fastpic.ru/big/2011/1013/a8/a3d28e80c9544f4c572189fc892ea8.gif / Blu-ray EUR / 1080p)
Видео: 1152x480 (2.40:1), 23.976 fps, MPEG-4 AVC, ~2080 kbps avg, 0.157 bit/pixel
Аудио #1: 48 kHz, AC3 Dolby Digital, 3/2 (L,C,R,l,r) + LFE ch, ~448 kbps avg (DUB)
Аудио #2: 48 kHz, AC3 Dolby Digital, 3/2 (L,C,R,l,r) + LFE ch, ~448 kbps avg (ENG)
Аудио #3: 48 kHz, AC3 Dolby Digital, 3/2 (L,C,R,l,r) + LFE ch, ~448 kbps avg (VO.ESAREV) (отдельно)
Размер: 2.26 GB
Сэмпл: скачать

http//lostpic.net/thumbs_images/0/c/3/0c3420719c87d6aa5d54081ed50d79.png http//lostpic.net/thumbs_images/6/8/c/68c894a312af9f2e327404a111b691.png http//lostpic.net/thumbs_images/e/6/a/e6a8a4bc75b1a40c33fa8ff2114c7ed6.png http//lostpic.net/thumbs_images/4/7/e/47efcab4f65ab67ea69268a941718c.png http//lostpic.net/thumbs_images/9/7/c/97c617b1e0b97371a04099843c6bee88.png http//lostpic.net/thumbs_images/5/4/e/54e6c98aa3317a31b7251a9f05e9e3.png

"MediaInfo"

Уникальный идентификатор : 232309694989398883044970214840954922243 (0xAEC538447EC9FDF799A2B4F9A3FE2503)
Полное имя : The.Drop.2014.DUAL.BDRip-AVC.x264.AC3.-HQCLUB.mkv
Формат : Matroska
Версия формата : Version 2
Размер файла : 2,26 Гбайт
Продолжительность : 1 ч. 46 м.
Общий поток : 3036 Кбит/сек
Дата кодирования : UTC 2015-01-21 22:56:34
Программа кодирования : mkvmerge v5.2.0 ('I can't explain') built on Dec 18 2011 18:12:03
Библиотека кодирования : libebml v1.2.3 + libmatroska v1.3.0

Видео
Идентификатор : 1
Формат : AVC
Формат/Информация : Advanced Video Codec
Профиль формата : High@L4.1
Параметр CABAC формата : Да
Параметр ReFrames формата : 13 кадров
Идентификатор кодека : V_MPEG4/ISO/AVC
Продолжительность : 1 ч. 46 м.
Битрейт : 2080 Кбит/сек
Ширина : 1152 пикселя
Высота : 480 пикселей
Соотношение сторон : 2,40:1
Режим частоты кадров : Постоянный
Частота кадров : 23,976 кадра/сек
Цветовое пространство : YUV
Субдискретизация насыщенности : 4:2:0
Битовая глубина : 8 бит
Тип развёртки : Прогрессивная
Бит/(Пиксели*Кадры) : 0.157
Размер потока : 1,55 Гбайт (69%)
Заголовок : Общак / The Drop (2014) BDRip-AVC by HQCLUB [Elheym]
Библиотека кодирования : x264 core 144 r2525kMod 40bb568
Настройки программы : cabac=1 / ref=13 / deblock=1:-3:-2 / analyse=0x3:0x133 / me=umh / subme=11 / psy=1 / fade_compensate=0.00 / psy_rd=0.90:0.00 / mixed_ref=1 / me_range=32 / chroma_me=1 / trellis=2 / 8x8dct=1 / cqm=0 / deadzone=21,11 / fast_pskip=0 / chroma_qp_offset=-4 / threads=6 / lookahead_threads=1 / sliced_threads=0 / nr=0 / decimate=1 / interlaced=0 / bluray_compat=0 / constrained_intra=0 / fgo=0 / bframes=15 / b_pyramid=2 / b_adapt=2 / b_bias=0 / direct=1 / weightb=1 / open_gop=0 / weightp=2 / keyint=230 / keyint_min=23 / scenecut=40 / intra_refresh=0 / rc_lookahead=40 / rc=crf / mbtree=0 / crf=18.5000 / qcomp=0.70 / qpmin=0 / qpmax=69 / qpstep=4 / vbv_maxrate=50000 / vbv_bufsize=62500 / crf_max=0.0 / nal_hrd=none / filler=0 / ip_ratio=1.40 / pb_ratio=1.30 / aq=3:0.90 / zones=145684,147727,b=0.36/147728,153542,b=0.25
Язык : English
Default : Да
Forced : Нет

Аудио #1
Идентификатор : 2
Формат : AC-3
Формат/Информация : Audio Coding 3
Расширение режима : CM (complete main)
Параметр Endianness формата : Big
Идентификатор кодека : A_AC3
Продолжительность : 1 ч. 46 м.
Вид битрейта : Постоянный
Битрейт : 448 Кбит/сек
Каналы : 6 каналов
Расположение каналов : Front: L C R, Side: L R, LFE
Частота : 48,0 КГц
Битовая глубина : 16 бит
Метод сжатия : С потерями
Размер потока : 342 Мбайт (15%)
Заголовок : АС3 5.1 @ 448 kbps - Dub, BD EUR
Язык : Russian
Default : Нет
Forced : Нет

Аудио #2
Идентификатор : 3
Формат : AC-3
Формат/Информация : Audio Coding 3
Расширение режима : CM (complete main)
Параметр Endianness формата : Big
Идентификатор кодека : A_AC3
Продолжительность : 1 ч. 46 м.
Вид битрейта : Постоянный
Битрейт : 448 Кбит/сек
Каналы : 6 каналов
Расположение каналов : Front: L C R, Side: L R, LFE
Частота : 48,0 КГц
Битовая глубина : 16 бит
Метод сжатия : С потерями
Размер потока : 342 Мбайт (15%)
Заголовок : АС3 5.1 @ 448 kbps - Original
Язык : English
Default : Нет
Forced : Нет

Текст #1
Идентификатор : 4
Формат : UTF-8
Идентификатор кодека : S_TEXT/UTF8
Идентификатор кодека/Информация : UTF-8 Plain Text
Заголовок : Full
Язык : Russian
Default : Нет
Forced : Нет

Текст #2
Идентификатор : 5
Формат : UTF-8
Идентификатор кодека : S_TEXT/UTF8
Идентификатор кодека/Информация : UTF-8 Plain Text
Заголовок : Full
Язык : Ukrainian
Default : Нет
Forced : Нет

Текст #3
Идентификатор : 6
Формат : UTF-8
Идентификатор кодека : S_TEXT/UTF8
Идентификатор кодека/Информация : UTF-8 Plain Text
Заголовок : Full
Язык : English
Default : Нет
Forced : Нет

Текст #4
Идентификатор : 7
Формат : UTF-8
Идентификатор кодека : S_TEXT/UTF8
Идентификатор кодека/Информация : UTF-8 Plain Text
Заголовок : Full SDH
Язык : English
Default : Нет
Forced : Нет

Текст #5
Идентификатор : 8
Формат : UTF-8
Идентификатор кодека : S_TEXT/UTF8
Идентификатор кодека/Информация : UTF-8 Plain Text
Заголовок : Full SDH Colored
Язык : English
Default : Нет
Forced : Нет

Меню
00:00:00.000 : :Chapter 01
00:02:25.353 : :Chapter 03
00:05:59.859 : :Chapter 05
00:08:09.155 : :Chapter 07
00:11:34.777 : :Chapter 09
00:13:48.744 : :Chapter 11
00:17:28.922 : :Chapter 13
00:21:37.212 : :Chapter 15
00:25:40.830 : :Chapter 17
00:27:53.463 : :Chapter 19
00:32:02.337 : :Chapter 21
00:36:19.552 : :Chapter 23
00:38:15.751 : :Chapter 25
00:40:35.141 : :Chapter 27
00:44:05.476 : :Chapter 29
00:46:47.471 : :Chapter 31
00:48:42.711 : :Chapter 33
00:52:50.584 : :Chapter 35
00:56:28.176 : :Chapter 37
01:01:40.530 : :Chapter 39
01:05:43.105 : :Chapter 41
01:07:36.802 : :Chapter 43
01:11:13.519 : :Chapter 45
01:12:32.598 : :Chapter 47
01:15:09.505 : :Chapter 49
01:21:11.741 : :Chapter 51
01:24:10.086 : :Chapter 53
01:28:27.260 : :Chapter 55
01:30:51.404 : :Chapter 57
01:34:54.480 : :Chapter 59
01:39:00.893 : :Chapter 61
01:41:16.236 : :Chapter 63
01:46:43.772 : :Chapter 64

"x264 log"

x264 [info]: frame I:1248 Avg QP:15.72 size: 86063
x264 [info]: frame P:28508 Avg QP:17.21 size: 25399
x264 [info]: frame B:123787 Avg QP:19.73 size: 7107

x264 [info]: consecutive B-frames: 1.2% 1.1% 4.7% 12.4% 16.1% 43.8% 7.2% 5.0% 2.0% 1.3% 1.3% 1.0% 1.1% 0.8% 0.4% 0.7%

x264 [info]: ref P L0: 45.3% 9.6% 18.7% 6.1% 5.6% 3.4% 3.5% 1.6% 1.7% 1.2% 1.3% 0.9% 1.1% 0.1% 0.0%
x264 [info]: ref B L0: 68.1% 13.4% 6.3% 3.5% 2.3% 2.0% 1.5% 0.9% 0.7% 0.7% 0.4% 0.2%
x264 [info]: ref B L1: 91.2% 8.8%


Цитата:
Перевод Дмитрия Есарева, доступен благодаря - mihey10
Работа со звуком - mihaildns. В переводе фигурирует ненормативная лексика.


Ссылки для скачивания:

http//bt.hqclub.net/files/ok.png Торрент: Общак / The Drop (2014) BDRip-AVC

Лучшая онлайн игра!


Публикация материалов сайта на сторонних ресурсах возможна только в неизменном виде.


Обсудить релиз на форуме

Вас также может заинтересовать:


  • 5
 (Голосов: 2)


Распечатать новость на принтере Драма, Криминал