Вас Приветствует Релиз-группа HQCLUB


Помощь ресурсу, очень ВАЖНО!!!



.


WELCOME
Добро пожаловать в наше интернет - сообщество!

Всех нас объединяет одна страсть - страсть к высококачественному кино. А это наш сайт. Ежедневно здесь мы публикуем десятки качественных, свежих, а порой и эксклюзивных релизов, которые Вы можете скачать совершенно бесплатно и без каких-либо регистраций. Посему рекомендуем Вам добавить HQClub себе в закладки, а также подписаться на нашу ленту новостей, чтобы всегда быть в курсе всех событий. Ну а если Вы такой же синий фил, как и мы, то милости просим на наш форум. И в заключение, попробуйте зарегистрироваться, ведь не так это и сложно и займет всего лишь пару минут! Вот увидите, Вам у нас понравится и Вы вольетесь в наш дружный коллектив! Ну а пока - осматривайтесь = )
Мы рады Вам !





Император / Emperor (2012) BDRip-AVC

Оформил: Elheym | 22 июня 2014 - 00:18:47 | Комментариев: 1 | Обращений: 1174 {bookmarks_news}

http//lostpic.net/orig_images/6/e/f/6efedd3263625b42e76182f0776d0c.jpg

Информация о фильме:
Название: Император
Оригинальное название: Emperor
Год выхода: 2012
Жанр: драма, история
Режиссер: Питер Веббер
В ролях: Мэттью Фокс, Томми Ли Джонс, Ерико Хатсуне, Тосиюки Нисида, Масаёси Ханеда, Каори Момои, Колин Мой, Масатоши Накамура, Масато Ибу, Исао Натсуяги

О фильме: Фильм рассказывает о днях, последовавших за капитуляцией Японии во Второй мировой войне, когда правителем Страны Восходящего солнца де-факто являлся генерал Даглас МакАртур. Одному из экспертов-японистов, генералу Боннеру Феллерсу, поручено найти ответ на непростой вопрос: следует ли признать японского императора Хирохито военным преступником и повесить?

http//rating.kinopoisk.ru/647802.gif/ http//bluebird-hd.org/imdb/imdb_tt2103264.gif

Релиз от - http//hqclub.net/images/hqclub.png
Автор рипа: Elheym

Выпущено: США, Япония, Krasnoff Foster Productions, Fellers Film, United Performers' Studio
Продолжительность: 01:41:14
Перевод: профессиональный (многоголосый, закадровый) + оригинал (английский)
Субтитры: английские (полные)
Главы: присутствуют, сохранены оригинальные

Файл:
Формат: MKV
Качество: BDRip-AVC (источник: http//bluebird-hd.org/pic/group_blubird.png / Blu-ray Disc / 1080p)
Видео: 1024x432 (2.40:1), 25 fps, MPEG-4 AVC, ~2311 kbps avg, 0.207 bit/pixel
Аудио #1: 48 kHz, AC3 Dolby Digital, 3/2 (L,C,R,l,r) + LFE ch, ~384 kbps | Профессиональный (многоголосый, закадровый) | (RUS)
Аудио #2: 48 kHz, AC3 Dolby Digital, 3/2 (L,C,R,l,r) + LFE ch, ~384 kbps | Оригинал | (ENG)
Размер: 2.17 GB
Сэмпл: скачать

http//lostpic.net/thumbs_images/a/c/8/ac8bec3fbbe5c9682ccdcd3d1ec126.png http//lostpic.net/thumbs_images/e/a/2/ea2c673a7f5541eaa177f442161e7355.png http//lostpic.net/thumbs_images/e/8/2/e825050745c87b32db9cfef140fb4513.png http//lostpic.net/thumbs_images/d/3/9/d39d895df266ea9b528407660db109.png http//lostpic.net/thumbs_images/4/a/7/4a7d3cb2e19cc281506ca03bdede81.png http//lostpic.net/thumbs_images/8/f/f/8ffcbaeac878b0a00168d181c6f947bc.png

"MediaInfo"
Уникальный идентификатор : 254559819618482337910794369213927513086 (0xBF82701BCB4C73B292538A4068BFDBFE)
Полное имя : Emperor.2012.DUAL.BDRip-AVC.x264.AC3.-HQCLUB.mkv
Формат : Matroska
Версия формата : Version 2
Размер файла : 2,18 Гбайт
Продолжительность : 1 ч. 41 м.
Общий поток : 3080 Кбит/сек
Дата кодирования : UTC 2014-06-21 17:02:43
Программа кодирования : mkvmerge v5.2.0 ('I can't explain') built on Dec 18 2011 18:12:03
Библиотека кодирования : libebml v1.2.3 + libmatroska v1.3.0

Видео
Идентификатор : 1
Формат : AVC
Формат/Информация : Advanced Video Codec
Профиль формата : High@L4.1
Параметр CABAC формата : Да
Параметр ReFrames формата : 8 кадров
Идентификатор кодека : V_MPEG4/ISO/AVC
Продолжительность : 1 ч. 41 м.
Битрейт : 2311 Кбит/сек
Ширина : 1024 пикселя
Высота : 436 пикселей
Соотношение сторон : 2,35:1
Режим частоты кадров : Постоянный
Частота кадров : 25,000 кадров/сек
Цветовое пространство : YUV
Субдискретизация насыщенности : 4:2:0
Битовая глубина : 8 бит
Тип развёртки : Прогрессивная
Бит/(Пиксели*Кадры) : 0.207
Размер потока : 1,59 Гбайт (73%)
Заголовок : Император / Emperor (2012) BDRip-AVC by HQCLUB [Elheym]
Библиотека кодирования : x264 core 142 r2431 ac76440
Настройки программы : cabac=1 / ref=9 / deblock=1:-3:-2 / analyse=0x3:0x113 / me=umh / subme=11 / psy=1 / psy_rd=1.00:0.00 / mixed_ref=1 / me_range=32 / chroma_me=1 / trellis=2 / 8x8dct=1 / cqm=0 / deadzone=21,11 / fast_pskip=1 / chroma_qp_offset=-4 / threads=6 / lookahead_threads=1 / sliced_threads=0 / nr=0 / decimate=1 / interlaced=0 / bluray_compat=0 / constrained_intra=0 / bframes=10 / b_pyramid=1 / b_adapt=2 / b_bias=0 / direct=3 / weightb=1 / open_gop=0 / weightp=2 / keyint=250 / keyint_min=25 / scenecut=40 / intra_refresh=0 / rc_lookahead=40 / rc=2pass / mbtree=1 / bitrate=2311 / ratetol=1.0 / qcomp=0.60 / qpmin=10 / qpmax=69 / qpstep=4 / cplxblur=20.0 / qblur=0.5 / vbv_maxrate=50000 / vbv_bufsize=62500 / nal_hrd=none / filler=0 / ip_ratio=1.40 / aq=1:1.00
Язык : English
Default : Да
Forced : Нет

Аудио #1
Идентификатор : 2
Формат : AC-3
Формат/Информация : Audio Coding 3
Расширение режима : CM (complete main)
Параметр Endianness формата : Big
Идентификатор кодека : A_AC3
Продолжительность : 1 ч. 41 м.
Вид битрейта : Постоянный
Битрейт : 384 Кбит/сек
Каналы : 6 каналов
Расположение каналов : Front: L C R, Side: L R, LFE
Частота : 48,0 КГц
Битовая глубина : 16 бит
Метод сжатия : С потерями
Размер потока : 278 Мбайт (12%)
Заголовок : АС3 5.1 @ ~384 kbps - MVO
Язык : Russian
Default : Нет
Forced : Нет

Аудио #2
Идентификатор : 3
Формат : AC-3
Формат/Информация : Audio Coding 3
Расширение режима : CM (complete main)
Параметр Endianness формата : Big
Идентификатор кодека : A_AC3
Продолжительность : 1 ч. 41 м.
Вид битрейта : Постоянный
Битрейт : 384 Кбит/сек
Каналы : 6 каналов
Расположение каналов : Front: L C R, Side: L R, LFE
Частота : 48,0 КГц
Битовая глубина : 16 бит
Метод сжатия : С потерями
Размер потока : 278 Мбайт (12%)
Заголовок : АС3 5.1 @ ~384 kbps - Original
Язык : English
Default : Нет
Forced : Нет

Текст
Идентификатор : 4
Формат : UTF-8
Идентификатор кодека : S_TEXT/UTF8
Идентификатор кодека/Информация : UTF-8 Plain Text
Заголовок : Full
Язык : English
Default : Нет
Forced : Нет

Меню
00:00:00.000 : :Chapter 01
00:06:39.400 : :Chapter 02
00:13:32.920 : :Chapter 03
00:18:54.640 : :Chapter 04
00:23:28.080 : :Chapter 05
00:27:58.320 : :Chapter 06
00:32:05.760 : :Chapter 07
00:39:07.160 : :Chapter 08
00:45:06.000 : :Chapter 09
00:51:21.239 : :Chapter 10
00:59:27.920 : :Chapter 11
01:04:09.200 : :Chapter 12
01:14:14.320 : :Chapter 13
01:21:36.479 : :Chapter 14
01:26:09.640 : :Chapter 15
01:35:08.280 : :Chapter 16
01:41:14.120 : :Chapter 17

"x264 log"
x264 [info]: frame I:1067 Avg QP:15.68 size: 75714
x264 [info]: frame P:32475 Avg QP:18.26 size: 25837
x264 [info]: frame B:118313 Avg QP:21.00 size: 7050

x264 [info]: consecutive B-frames: 2.2% 2.8% 7.9% 16.0% 13.1% 46.5% 6.6% 1.1% 2.2% 0.7% 0.9%

x264 [info]: ref P L0: 56.0% 12.0% 13.9% 6.1% 4.3% 3.3% 2.6% 1.7% 0.2% 0.0%
x264 [info]: ref B L0: 82.4% 8.5% 4.2% 1.9% 1.4% 1.0% 0.6%
x264 [info]: ref B L1: 93.0% 7.0%


Ссылки для скачивания:

http//bt.hqclub.net/files/ok.png Торрент: Император / Emperor (2012) BDRip-AVC

Лучшая онлайн игра!


Публикация материалов сайта на сторонних ресурсах возможна только в неизменном виде.


Обсудить релиз на форуме

Вас также может заинтересовать:


  • 5
 (Голосов: 3)


Распечатать новость на принтере Драма, Исторический

КОММЕНТАРИИ

 №1. ru4lan

Статус: Кинокритик | Новостей: 0 | Комментариев: 2736
ru4lan суупер соотношение размера и качества
~~~

23.06.2014 - 19:20   цитировать