Вас Приветствует Релиз-группа HQCLUB


Помощь ресурсу, очень ВАЖНО!!!



.


WELCOME
Добро пожаловать в наше интернет - сообщество!

Всех нас объединяет одна страсть - страсть к высококачественному кино. А это наш сайт. Ежедневно здесь мы публикуем десятки качественных, свежих, а порой и эксклюзивных релизов, которые Вы можете скачать совершенно бесплатно и без каких-либо регистраций. Посему рекомендуем Вам добавить HQClub себе в закладки, а также подписаться на нашу ленту новостей, чтобы всегда быть в курсе всех событий. Ну а если Вы такой же синий фил, как и мы, то милости просим на наш форум. И в заключение, попробуйте зарегистрироваться, ведь не так это и сложно и займет всего лишь пару минут! Вот увидите, Вам у нас понравится и Вы вольетесь в наш дружный коллектив! Ну а пока - осматривайтесь = )
Мы рады Вам !





Фокус / Focus (2015) BDRip-AVC

Оформил: Elheym | 19 июня 2015 - 13:10:44 | Обращений: 777 {bookmarks_news}

http//img.lostpic.net/orig_images/a/b/f/abf908aaf9ba17321d67bd668ef4bf.jpg

Информация о фильме:
Название: Фокус
Оригинальное название: Focus
Год выхода: 2015
Жанр: драма, мелодрама, комедия, криминал
Режиссер: Гленн Фикарра / Glenn Ficarra, Джон Рекуа / John Requa
В ролях: Уилл Смит, Марго Робби, Адриан Мартинес, Джералд МакРэйни, Родриго Санторо, Б.Д. Вонг, Бреннан Браун, Роберт Тейлор, Дотан Бонен, Грифф Ферст

О фильме: История об опытном мошеннике, который влюбляется в девушку, делающую первые шаги на поприще нелегального отъема средств у граждан. Отношения становятся для них проблемой, когда обнаруживается, что романтика мешает их нечестному бизнесу.

«Узнай в чём фокус»



http//rating.kinopoisk.ru/680824.gif http//tracker.0day.kiev.ua/imdb/imdb_tt2381941.gif

Релиз от - http//hqclub.net/images/hqclub.png
Автор рипа: Elheym

Выпущено: США, Аргентина ‖ Kramer & Sigman Films, RatPac-Dune Entertainment, Zaftig Films
Продолжительность: 01:44:44
Перевод: Профессиональный (полное дублирование) BD EUR
Оригинальная аудиодорожка: английская
Субтитры: русские (полные, форсированные: BD, iTunes), украинские (форсированные), английские (полные, SDH, SDH цветные)
Главы: присутствуют, сохранены оригинальные

Дополнительные аудиодорожки:
+ Профессиональный (полное дублирование) украинский [iTunes]

Файл:
Формат: MKV
Качество: BDRip (источник: http//lostpic.net/images/20a38122bcc5994b3cdae6e4b4b0.png / Blu-ray EUR [Focus.2015.1080p.BluRay.EUR.AVC.DTS-HD.MA.5.1-PSiG] / 1080p)
Видео: 1152x648 (16:9), 23.976 fps, MPEG-4 AVC, ~3800 kbps avg, 0.212 bit/pixel
Аудио #1: 48 kHz, AC3 Dolby Digital, 3/2 (L,C,R,l,r) + LFE ch, ~448 kbps avg (DUB)
Аудио #2: 48 kHz, AC3 Dolby Digital, 3/2 (L,C,R,l,r) + LFE ch, ~448 kbps avg (ENG)
Аудио #3: 48 kHz, AC3 Dolby Digital, 3/2 (L,C,R,l,r) + LFE ch, ~384 kbps avg (UKR) (отдельно)
Размер: 3.43 GB
Сэмпл: скачать

http//lostpic.net/thumbs_images/2/f/4/2f443612086373f591d75828e446f4d1.png http//lostpic.net/thumbs_images/4/1/6/416788981fc83becdb3246b3bfab47d8.png http//lostpic.net/thumbs_images/9/3/f/93f1b8ac875b2380fc243e8fd2a297a3.png http//lostpic.net/thumbs_images/a/9/5/a9552f2b7779b0abccf0b7f899b3056b.png http//lostpic.net/thumbs_images/f/b/1/fb12b3d2b5c65612212e8262c25d7c86.png http//lostpic.net/thumbs_images/7/9/9/7992d758c1f2714a278bafd61338fcf7.png

"MediaInfo"

Уникальный идентификатор : 192710211674603188663033815688825160890 (0x90FAA3006E6DE407A7F521AA64BE44BA)
Полное имя : Focus.2015.DUAL.BDRip-AVC.x264.AC3.-HQCLUB.mkv
Формат : Matroska
Версия формата : Version 2
Размер файла : 3,43 Гбайт
Продолжительность : 1 ч. 44 м.
Общий поток : 4694 Кбит/сек
Название фильма : Фокус / Focus (2015) BDRip-AVC by HQCLUB [Elheym]
Дата кодирования : UTC 2015-06-19 08:54:52
Программа кодирования : mkvmerge v5.2.0 ('I can't explain') built on Dec 18 2011 18:12:03
Библиотека кодирования : libebml v1.2.3 + libmatroska v1.3.0
Attachements : Cover.jpg

Видео
Идентификатор : 1
Формат : AVC
Формат/Информация : Advanced Video Codec
Профиль формата : High@L4
Параметр CABAC формата : Да
Параметр ReFrames формата : 10 кадров
Идентификатор кодека : V_MPEG4/ISO/AVC
Продолжительность : 1 ч. 44 м.
Битрейт : 3800 Кбит/сек
Ширина : 1152 пикселя
Высота : 648 пикселей
Соотношение сторон : 16:9
Режим частоты кадров : Постоянный
Частота кадров : 23,976 кадра/сек
Цветовое пространство : YUV
Субдискретизация насыщенности : 4:2:0
Битовая глубина : 8 бит
Тип развёртки : Прогрессивная
Бит/(Пиксели*Кадры) : 0.212
Размер потока : 2,71 Гбайт (79%)
Заголовок : Фокус / Focus (2015) BDRip-AVC by HQCLUB [Elheym]
Библиотека кодирования : x264 core 146 r0+2586 e393126 t_mod_Custom [8-bit@all X86_64]
Настройки программы : cabac=1 / ref=10 / deblock=1:-2:-2 / analyse=0x3:0x113 / me=umh / subme=11 / psy=1 / fade_compensate=0.00 / psy_rd=1.00:0.13 / mixed_ref=1 / me_range=32 / chroma_me=1 / trellis=2 / 8x8dct=1 / cqm=0 / deadzone=21,11 / fast_pskip=0 / chroma_qp_offset=-3 / threads=6 / lookahead_threads=2 / sliced_threads=0 / nr=0 / decimate=0 / interlaced=0 / bluray_compat=0 / constrained_intra=0 / fgo=0 / bframes=10 / b_pyramid=2 / b_adapt=2 / b_bias=0 / direct=3 / weightb=1 / open_gop=0 / weightp=2 / keyint=230 / keyint_min=23 / scenecut=40 / intra_refresh=0 / rc_lookahead=80 / rc=2pass / mbtree=0 / bitrate=3800 / ratetol=1.0 / qcomp=0.80 / qpmin=0:0:0 / qpmax=69:69:69 / qpstep=4 / cplxblur=20.0 / qblur=0.5 / vbv_maxrate=20000 / vbv_bufsize=25000 / nal_hrd=none / filler=0 / ip_ratio=1.40 / pb_ratio=1.30 / aq=2:0.50 / aq-sensitivity=10.00 / aq-factor=1.00:1.00:1.00 / aq2=0 / aq3=0 / zones=144270,150668,b=0.2
Язык : English
Default : Да
Forced : Нет

Аудио #1
Идентификатор : 2
Формат : AC-3
Формат/Информация : Audio Coding 3
Расширение режима : CM (complete main)
Параметр Endianness формата : Big
Идентификатор кодека : A_AC3
Продолжительность : 1 ч. 44 м.
Вид битрейта : Постоянный
Битрейт : 448 Кбит/сек
Каналы : 6 каналов
Расположение каналов : Front: L C R, Side: L R, LFE
Частота : 48,0 КГц
Метод сжатия : С потерями
Размер потока : 336 Мбайт (10%)
Заголовок : АС3 5.1 @ 448 kbps - Dub, BD EUR
Язык : Russian
Default : Нет
Forced : Нет

Аудио #2
Идентификатор : 3
Формат : AC-3
Формат/Информация : Audio Coding 3
Расширение режима : CM (complete main)
Параметр Endianness формата : Big
Идентификатор кодека : A_AC3
Продолжительность : 1 ч. 44 м.
Вид битрейта : Постоянный
Битрейт : 448 Кбит/сек
Каналы : 6 каналов
Расположение каналов : Front: L C R, Side: L R, LFE
Частота : 48,0 КГц
Метод сжатия : С потерями
Размер потока : 336 Мбайт (10%)
Заголовок : АС3 5.1 @ 448 kbps - Original
Язык : English
Default : Нет
Forced : Нет

Текст #1
Идентификатор : 4
Формат : UTF-8
Идентификатор кодека : S_TEXT/UTF8
Идентификатор кодека/Информация : UTF-8 Plain Text
Заголовок : Full, BD
Язык : Russian
Default : Нет
Forced : Нет

Текст #2
Идентификатор : 5
Формат : UTF-8
Идентификатор кодека : S_TEXT/UTF8
Идентификатор кодека/Информация : UTF-8 Plain Text
Заголовок : Full, iTunes
Язык : Russian
Default : Нет
Forced : Нет

Текст #3
Идентификатор : 6
Формат : UTF-8
Идентификатор кодека : S_TEXT/UTF8
Идентификатор кодека/Информация : UTF-8 Plain Text
Заголовок : Forced, iTunes
Язык : Russian
Default : Нет
Forced : Нет

Текст #4
Идентификатор : 7
Формат : UTF-8
Идентификатор кодека : S_TEXT/UTF8
Идентификатор кодека/Информация : UTF-8 Plain Text
Заголовок : Forced, BD
Язык : Russian
Default : Нет
Forced : Нет

Текст #5
Идентификатор : 8
Формат : UTF-8
Идентификатор кодека : S_TEXT/UTF8
Идентификатор кодека/Информация : UTF-8 Plain Text
Заголовок : Forced, iTunes
Язык : Ukrainian
Default : Нет
Forced : Нет

Текст #6
Идентификатор : 9
Формат : UTF-8
Идентификатор кодека : S_TEXT/UTF8
Идентификатор кодека/Информация : UTF-8 Plain Text
Заголовок : Full
Язык : English
Default : Нет
Forced : Нет

Текст #7
Идентификатор : 10
Формат : UTF-8
Идентификатор кодека : S_TEXT/UTF8
Идентификатор кодека/Информация : UTF-8 Plain Text
Заголовок : SDH
Язык : English
Default : Нет
Forced : Нет

Текст #8
Идентификатор : 11
Формат : UTF-8
Идентификатор кодека : S_TEXT/UTF8
Идентификатор кодека/Информация : UTF-8 Plain Text
Заголовок : SDH Colored
Язык : English
Default : Нет
Forced : Нет

Меню
00:00:00.000 : :Chapter 01
00:09:17.974 : :Chapter 02
00:18:55.217 : :Chapter 03
00:30:22.903 : :Chapter 04
00:40:56.077 : :Chapter 05
00:49:16.368 : :Chapter 06
01:00:10.481 : :Chapter 07
01:11:02.756 : :Chapter 08
01:20:27.488 : :Chapter 09
01:28:33.890 : :Chapter 10
01:39:19.619 : :Chapter 11
01:44:43.902 : :Chapter 12

"x264 log"

x264 [info]: frame I:1457 Avg QP:15.41 size:125438
x264 [info]: frame P:35793 Avg QP:19.13 size: 39964
x264 [info]: frame B:113419 Avg QP:20.45 size: 12058

x264 [info]: consecutive B-frames: 3.5% 3.7% 5.9% 35.9% 12.7% 24.5% 5.9% 6.6% 0.9% 0.3% 0.3%

x264 [info]: ref P L0: 47.9% 8.9% 18.8% 6.1% 5.6% 3.7% 3.5% 1.8% 1.9% 1.6% 0.3% 0.0%
x264 [info]: ref B L0: 78.2% 11.0% 4.3% 2.2% 1.4% 1.3% 0.9% 0.4% 0.2%
x264 [info]: ref B L1: 94.3% 5.7%


Ссылки для скачивания:

http//bt.hqclub.net/files/ok.png Торрент: Фокус / Focus (2015) BDRip-AVC

Лучшая онлайн игра!


Публикация материалов сайта на сторонних ресурсах возможна только в неизменном виде.


Обсудить релиз на форуме

Вас также может заинтересовать:


  • 4
 (Голосов: 4)


Распечатать новость на принтере Драма, Мелодрама, Комедия, Криминал
Обновлено: 21.06.2015 - 00:17