Вас Приветствует Релиз-группа HQCLUB


Помощь ресурсу, очень ВАЖНО!!!



.


WELCOME
Добро пожаловать в наше интернет - сообщество!

Всех нас объединяет одна страсть - страсть к высококачественному кино. А это наш сайт. Ежедневно здесь мы публикуем десятки качественных, свежих, а порой и эксклюзивных релизов, которые Вы можете скачать совершенно бесплатно и без каких-либо регистраций. Посему рекомендуем Вам добавить HQClub себе в закладки, а также подписаться на нашу ленту новостей, чтобы всегда быть в курсе всех событий. Ну а если Вы такой же синий фил, как и мы, то милости просим на наш форум. И в заключение, попробуйте зарегистрироваться, ведь не так это и сложно и займет всего лишь пару минут! Вот увидите, Вам у нас понравится и Вы вольетесь в наш дружный коллектив! Ну а пока - осматривайтесь = )
Мы рады Вам !





Фокус / Focus (2015) BDRip 720p

Оформил: Elheym | 27 июня 2015 - 09:28:21 | Обращений: 722 {bookmarks_news}

http//lostpic.net/orig_images/2/8/f/28fb5faba4f8ba986dbd5bdb7e415277.png

Информация о фильме
Название: Фокус
Оригинальное название: Focus
Год выхода: 2015
Жанр: Драма, Мелодрама, Комедия, Криминал
В ролях: Уилл Смит, Марго Робби, Адриан Мартинес, Джералд МакРэйни, Родриго Санторо, Б.Д. Вонг, Бреннан Браун, Роберт Тейлор, Дотан Бонен, Грифф Ферст
Режиссёр: Гленн Фикарра / Glenn Ficarra, Джон Рекуа / John Requa

О фильме: Опытный аферист и умелый манипулятор Никки становится жертвой не самой удачной разводки, за которой стоит красавица Джесс. В ответ на насмешки бывалого вора девушка ставит своей целью влиться в команду Никки. Очень скоро ей это удается, больше того, Джесс проявляет недюжинный талант и умения, но опасающийся того, что личная привязанность, а тем более глубокие чувства могут помешать делу, Никки решает расстаться с новой пассией. Спустя три года бывшие любовники снова встречаются во время работы над одной серьезной мошеннической схемой, однако теперь они находятся по разные стороны баррикад…

«Узнай в чём фокус»



User Rating: 7.057 (49 285 votes)
IMDB: 6.60 (66 782 votes)

Релиз от - http//hqclub.net/images/hqclub.png
Автор рипа: Rensler

Выпущено: США, Аргентина
Студия: Kramer & Sigman Films, RatPac-Dune Entertainment, Zaftig Films
Продолжительность: 01:44:44
Перевод:
• Профессиональный (полное дублирование) BD CEE
• Профессиональный (полное дублирование) Украинский
Оригинальная аудиодорожка: Английская
Субтитры: Русские (форсированные, полные), Английские (полные)
Главы: Сохранены чаптеры с оригинального Blu-ray Disc

Файл:
Формат: MKV
Качество: BDRip 720p (источник: http//savepic.biz/img/2015-06/10/qycmb6phwd71giyitijnc02kq.png / Blu-ray CEE 1080p AVC DD5.1)
Видео: 1280x720 (0% AR dist.) 16:9 at 23.976, MPEG-4 AVC ~ 7605 kbps avg, 0.344 bit/pixel
Аудио#1: 48 kHz/16-bit, AC3 Dolby Digital, 3/2 (L,C,R,l,r) + LFE ch, ~ 640 kbps avg | RUS
Аудио#2: 48 kHz/16-bit, AC3 Dolby Digital, 3/2 (L,C,R,l,r) + LFE ch, ~ 384 kbps avg | UKR
Аудио#3: 48 kHz/16-bit, AC3 Dolby Digital, 3/2 (L,C,R,l,r) + LFE ch, ~ 640 kbps avg | ENG
Скачать: Семпл

Размер: 6,76 GB (DVD-9)

"MediaInfo"

Уникальный идентификатор : 229099789030937117370030187011794574140 (0xAC5B03AF5FCBF9AEA287940EC9809B3C)
Полное имя : Focus.2015.720p.BluRay.Rus.Eng.-HQCLUB.mkv
Формат : Matroska
Версия формата : Version 4 / Version 2
Размер файла : 6,77 Гбайт
Продолжительность : 1 ч. 44 м.
Общий поток : 9252 Кбит/сек
Название фильма : Фокус / Focus (2015) Blu-ray 720p
Дата кодирования : UTC 2010-02-22 21:41:31
Программа кодирования : mkvmerge v5.8.0 ('No Sleep / Pillow') built on Sep 30 2012 10:57:14
Библиотека кодирования : libebml v1.3.0 + libmatroska v1.4.0
Attachements : Focus.png

Видео
Идентификатор : 1
Формат : AVC
Формат/Информация : Advanced Video Codec
Профиль формата : High@L4.1
Параметр CABAC формата : Да
Параметр ReFrames формата : 8 кадров
Идентификатор кодека : V_MPEG4/ISO/AVC
Продолжительность : 1 ч. 44 м.
Битрейт : 7605 Кбит/сек
Ширина : 1280 пикселей
Высота : 720 пикселей
Соотношение сторон : 16:9
Режим частоты кадров : Постоянный
Частота кадров : 23,976 кадра/сек
Цветовое пространство : YUV
Субдискретизация насыщенности : 4:2:0
Битовая глубина : 8 бит
Тип развёртки : Прогрессивная
Бит/(Пиксели*Кадры) : 0.344
Размер потока : 5,42 Гбайт (80%)
Заголовок : Release by Rensler
Библиотека кодирования : x264 core 146 r2538 121396c
Настройки программы : cabac=1 / ref=8 / deblock=1:-2:-2 / analyse=0x3:0x113 / me=tesa / subme=11 / psy=1 / psy_rd=1.00:0.00 / mixed_ref=1 / me_range=24 / chroma_me=1 / trellis=2 / 8x8dct=1 / cqm=0 / deadzone=21,11 / fast_pskip=0 / chroma_qp_offset=-2 / threads=3 / lookahead_threads=1 / sliced_threads=0 / nr=0 / decimate=0 / interlaced=0 / bluray_compat=0 / constrained_intra=0 / bframes=8 / b_pyramid=2 / b_adapt=2 / b_bias=0 / direct=3 / weightb=1 / open_gop=0 / weightp=2 / keyint=240 / keyint_min=23 / scenecut=40 / intra_refresh=0 / rc_lookahead=40 / rc=2pass / mbtree=0 / bitrate=7605 / ratetol=1.0 / qcomp=0.65 / qpmin=0 / qpmax=69 / qpstep=4 / cplxblur=20.0 / qblur=0.5 / vbv_maxrate=50000 / vbv_bufsize=62500 / nal_hrd=none / filler=0 / ip_ratio=1.20 / pb_ratio=1.20 / aq=1:0.75
Язык : English
Default : Да
Forced : Нет

Аудио #1
Идентификатор : 2
Формат : AC-3
Формат/Информация : Audio Coding 3
Расширение режима : CM (complete main)
Параметр Endianness формата : Big
Идентификатор кодека : A_AC3
Продолжительность : 1 ч. 44 м.
Вид битрейта : Постоянный
Битрейт : 640 Кбит/сек
Каналы : 6 каналов
Расположение каналов : Front: L C R, Side: L R, LFE
Частота : 48,0 КГц
Битовая глубина : 16 бит
Метод сжатия : С потерями
Размер потока : 479 Мбайт (7%)
Заголовок : BD CEE
Язык : Russian
Default : Да
Forced : Нет

Аудио #2
Идентификатор : 3
Формат : AC-3
Формат/Информация : Audio Coding 3
Расширение режима : CM (complete main)
Параметр Endianness формата : Big
Идентификатор кодека : A_AC3
Продолжительность : 1 ч. 44 м.
Вид битрейта : Постоянный
Битрейт : 384 Кбит/сек
Каналы : 6 каналов
Расположение каналов : Front: L C R, Side: L R, LFE
Частота : 48,0 КГц
Битовая глубина : 16 бит
Метод сжатия : С потерями
Размер потока : 288 Мбайт (4%)
Заголовок : UKR
Язык : Ukrainian
Default : Нет
Forced : Нет

Аудио #3
Идентификатор : 4
Формат : AC-3
Формат/Информация : Audio Coding 3
Расширение режима : CM (complete main)
Параметр Endianness формата : Big
Идентификатор кодека : A_AC3
Продолжительность : 1 ч. 44 м.
Вид битрейта : Постоянный
Битрейт : 640 Кбит/сек
Каналы : 6 каналов
Расположение каналов : Front: L C R, Side: L R, LFE
Частота : 48,0 КГц
Битовая глубина : 16 бит
Метод сжатия : С потерями
Размер потока : 479 Мбайт (7%)
Заголовок : Original
Язык : English
Default : Нет
Forced : Нет

Текст #1
Идентификатор : 5
Формат : UTF-8
Идентификатор кодека : S_TEXT/UTF8
Идентификатор кодека/Информация : UTF-8 Plain Text
Заголовок : Forced
Язык : Russian
Default : Да
Forced : Нет

Текст #2
Идентификатор : 6
Формат : UTF-8
Идентификатор кодека : S_TEXT/UTF8
Идентификатор кодека/Информация : UTF-8 Plain Text
Заголовок : Full
Язык : Russian
Default : Нет
Forced : Нет

Текст #3
Идентификатор : 7
Формат : UTF-8
Идентификатор кодека : S_TEXT/UTF8
Идентификатор кодека/Информация : UTF-8 Plain Text
Заголовок : Full
Язык : English
Default : Нет
Forced : Нет

Меню
00:00:00.000 : :Chapter 01
00:09:17.974 : :Chapter 02
00:18:55.217 : :Chapter 03
00:30:22.903 : :Chapter 04
00:40:56.077 : :Chapter 05
00:49:16.368 : :Chapter 06
01:00:10.481 : :Chapter 07
01:11:02.756 : :Chapter 08
01:20:27.488 : :Chapter 09
01:28:33.890 : :Chapter 10
01:39:19.619 : :Chapter 11
01:44:43.902 : :Chapter 12

"log@x.264"

x264 [info]: frame I:1509 Avg QP:15.27 size:154688
x264 [info]: frame P:32312 Avg QP:16.87 size: 71792
x264 [info]: frame B:116848 Avg QP:18.22 size: 29249
x264 [info]: consecutive B-frames: 1.8% 2.2% 4.6% 36.3% 11.3% 26.9% 7.1% 3.7% 0.1%
x264 [info]: ref P L0: 51.2% 5.5% 16.6% 8.6% 6.6% 5.0% 4.0% 2.3% 0.1% 0.0%


http//lostpic.net/thumbs_images/c/b/c/cbc23c3bc056d9f7b180daa06a055ee1.png http//lostpic.net/thumbs_images/9/a/4/9a4d77837d9479c2b538fe9699ce8af2.png http//lostpic.net/thumbs_images/5/3/f/53fdb7125b7d43f0839812facb84687c.png
http//lostpic.net/thumbs_images/c/6/9/c697eaa4521a51ae4376113a692d6f.png http//lostpic.net/thumbs_images/4/0/6/4062a17038a9a58f9f5f671917345a39.png http//lostpic.net/thumbs_images/a/9/c/a9c5b45ed0776f7ffce6400dec78.png

Ссылки для скачивания:
http//bt.hqclub.net/files/ok.png Торрент: Фокус / Focus (2015) BDRip 720p

Лучшая онлайн игра!


Публикация материалов сайта на сторонних ресурсах возможна только в неизменном виде.


Обсудить релиз на форуме

Вас также может заинтересовать:


  • 4
 (Голосов: 5)


Распечатать новость на принтере Драма, Мелодрама, Комедия, Криминал
Обновлено: 27.06.2015 - 14:20