Вас Приветствует Релиз-группа HQCLUB


Помощь ресурсу, очень ВАЖНО!!!



.


WELCOME
Добро пожаловать в наше интернет - сообщество!

Всех нас объединяет одна страсть - страсть к высококачественному кино. А это наш сайт. Ежедневно здесь мы публикуем десятки качественных, свежих, а порой и эксклюзивных релизов, которые Вы можете скачать совершенно бесплатно и без каких-либо регистраций. Посему рекомендуем Вам добавить HQClub себе в закладки, а также подписаться на нашу ленту новостей, чтобы всегда быть в курсе всех событий. Ну а если Вы такой же синий фил, как и мы, то милости просим на наш форум. И в заключение, попробуйте зарегистрироваться, ведь не так это и сложно и займет всего лишь пару минут! Вот увидите, Вам у нас понравится и Вы вольетесь в наш дружный коллектив! Ну а пока - осматривайтесь = )
Мы рады Вам !





Анатомия любви / Endless Love (2014) BDRip-AVC

Оформил: Elheym | 21 августа 2014 - 15:17:09 | Обращений: 917 {bookmarks_news}

http//lostpic.net/orig_images/2/9/9/299a08e670a9a132f6cdd8d22e626f59.jpg

Информация о фильме:
Название: Анатомия любви
Оригинальное название: Endless Love
Год выхода: 2014
Жанр: драма, мелодрама
Режиссер: Шана Фест
В ролях: Алекс Петтифер, Габриэлла Уайлд, Брюс Гринвуд, Джоэли Ричардсон, Роберт Патрик, Риз Уэйкфилд, Дайо Окенайи, Эмма Ригби, Анна Энгер, Фаббианн Терез

О фильме: Он — далеко не ангел, высокий дерзкий парень, помешанный на тачках. Она — примерная ученица, белокурая красотка из богатой семьи. Их любовь под запретом, а потому вдвойне желанна. Страсть сжигает их дотла и бросает в бездну.

«Она никогда не будет прежней»



http//rating.kinopoisk.ru/6954.gif http//tracker.0day.kiev.ua/imdb/imdb_tt2318092.gif

Релиз от - http//hqclub.net/images/hqclub.png
Автор рипа: Elheym

Выпущено: США, Bluegrass Films, Fake Empire, Universal Pictures, Mr. X Gotham
Продолжительность: 01:44:38
Перевод: Профессиональный (полное дублирование) + Оригинал (английский)
Субтитры: русские (полные, форсированные), английские (полные, SDH, SDH-Colored), украинские (полные, форсированные)
Главы: присутствуют, сохранены оригинальные

Файл:
Формат: MKV
Качество: BDRip-AVC (источник: http//lostpic.net/images/20a38122bcc5994b3cdae6e4b4b0.png / Blu-ray EUR / 1080p)
Видео: 1024x436 (2.35:1), 23.976 fps, MPEG-4 AVC, ~2999 kbps avg, 0.280 bit/pixel
Аудио #1: 48 kHz, AC3 Dolby Digital, 3/2 (L,C,R,l,r) + LFE ch, ~448 kbps (DUB)
Аудио #2: 48 kHz, AC3 Dolby Digital, 3/2 (L,C,R,l,r) + LFE ch, ~448 kbps (ENG)
Размер: 2.84 GB
Сэмпл: скачать

http//lostpic.net/thumbs_images/4/a/9/4a9dffe3dfa7faaf63355f07e39b2d.png http//lostpic.net/thumbs_images/6/b/b/6bb5a98f36edee89dfd15315b084ca12.png http//lostpic.net/thumbs_images/6/d/7/6d71600a7f75dffbfcd4ff9af1ecc0e2.png http//lostpic.net/thumbs_images/d/6/3/d63474ee364163d5fb9fa29a619437.png http//lostpic.net/thumbs_images/b/7/b/b7b2ca0005268fb8a1fc95d3a1a6.png http//lostpic.net/thumbs_images/9/6/8/96850951e88774f2977186d2ca67c0d5.png

"MediaInfo"

Уникальный идентификатор : 170734747664918904848928242391200830996 (0x807250F987B23B2D9398F94BDF3C1614)
Полное имя : Endless.Love.2014.DUAL.BDRip-AVC.x264.AC3.-HQCLUB.mkv
Формат : Matroska
Версия формата : Version 2
Размер файла : 2,85 Гбайт
Продолжительность : 1 ч. 44 м.
Общий поток : 3893 Кбит/сек
Дата кодирования : UTC 2014-08-21 10:48:28
Программа кодирования : mkvmerge v5.2.0 ('I can't explain') built on Dec 18 2011 18:12:03
Библиотека кодирования : libebml v1.2.3 + libmatroska v1.3.0

Видео
Идентификатор : 1
Формат : AVC
Формат/Информация : Advanced Video Codec
Профиль формата : High@L4.1
Параметр CABAC формата : Да
Параметр ReFrames формата : 15 кадров
Идентификатор кодека : V_MPEG4/ISO/AVC
Продолжительность : 1 ч. 44 м.
Битрейт : 2999 Кбит/сек
Ширина : 1024 пикселя
Высота : 436 пикселей
Соотношение сторон : 2,35:1
Режим частоты кадров : Постоянный
Частота кадров : 23,976 кадра/сек
Цветовое пространство : YUV
Субдискретизация насыщенности : 4:2:0
Битовая глубина : 8 бит
Тип развёртки : Прогрессивная
Бит/(Пиксели*Кадры) : 0.280
Размер потока : 2,13 Гбайт (75%)
Заголовок : Анатомия любви / Endless Love (2014) BDRip-AVC by HQCLUB [Elheym]
Библиотека кодирования : x264 core 142 r2453 ea0ca51
Настройки программы : cabac=1 / ref=15 / deblock=1:-2:-2 / analyse=0x3:0x113 / me=umh / subme=11 / psy=1 / psy_rd=1.05:0.07 / mixed_ref=1 / me_range=32 / chroma_me=1 / trellis=2 / 8x8dct=1 / cqm=0 / deadzone=21,11 / fast_pskip=1 / chroma_qp_offset=-5 / threads=6 / lookahead_threads=1 / sliced_threads=0 / nr=0 / decimate=1 / interlaced=0 / bluray_compat=0 / constrained_intra=0 / bframes=11 / b_pyramid=2 / b_adapt=2 / b_bias=0 / direct=3 / weightb=1 / open_gop=0 / weightp=2 / keyint=240 / keyint_min=23 / scenecut=40 / intra_refresh=0 / rc_lookahead=40 / rc=2pass / mbtree=1 / bitrate=2999 / ratetol=1.0 / qcomp=0.60 / qpmin=10 / qpmax=69 / qpstep=4 / cplxblur=20.0 / qblur=0.5 / vbv_maxrate=50000 / vbv_bufsize=62500 / nal_hrd=none / filler=0 / ip_ratio=1.40 / aq=1:0.90
Язык : English
Default : Да
Forced : Нет

Аудио #1
Идентификатор : 2
Формат : AC-3
Формат/Информация : Audio Coding 3
Расширение режима : CM (complete main)
Параметр Endianness формата : Big
Идентификатор кодека : A_AC3
Продолжительность : 1 ч. 44 м.
Вид битрейта : Постоянный
Битрейт : 448 Кбит/сек
Каналы : 6 каналов
Расположение каналов : Front: L C R, Side: L R, LFE
Частота : 48,0 КГц
Битовая глубина : 16 бит
Метод сжатия : С потерями
Размер потока : 335 Мбайт (12%)
Заголовок : АС3 5.1 @ 448 kbps - Dub, Blu-ray EUR
Язык : Russian
Default : Нет
Forced : Нет

Аудио #2
Идентификатор : 3
Формат : AC-3
Формат/Информация : Audio Coding 3
Расширение режима : CM (complete main)
Параметр Endianness формата : Big
Идентификатор кодека : A_AC3
Продолжительность : 1 ч. 44 м.
Вид битрейта : Постоянный
Битрейт : 448 Кбит/сек
Каналы : 6 каналов
Расположение каналов : Front: L C R, Side: L R, LFE
Частота : 48,0 КГц
Битовая глубина : 16 бит
Метод сжатия : С потерями
Размер потока : 335 Мбайт (12%)
Заголовок : АС3 5.1 @ 448 kbps - Original
Язык : English
Default : Нет
Forced : Нет

Текст #1
Идентификатор : 4
Формат : UTF-8
Идентификатор кодека : S_TEXT/UTF8
Идентификатор кодека/Информация : UTF-8 Plain Text
Заголовок : Full
Язык : Russian
Default : Нет
Forced : Нет

Текст #2
Идентификатор : 5
Формат : UTF-8
Идентификатор кодека : S_TEXT/UTF8
Идентификатор кодека/Информация : UTF-8 Plain Text
Заголовок : Forced
Язык : Russian
Default : Да
Forced : Нет

Текст #3
Идентификатор : 6
Формат : UTF-8
Идентификатор кодека : S_TEXT/UTF8
Идентификатор кодека/Информация : UTF-8 Plain Text
Заголовок : Full
Язык : Ukrainian
Default : Нет
Forced : Нет

Текст #4
Идентификатор : 7
Формат : UTF-8
Идентификатор кодека : S_TEXT/UTF8
Идентификатор кодека/Информация : UTF-8 Plain Text
Заголовок : Forced
Язык : Ukrainian
Default : Нет
Forced : Нет

Текст #5
Идентификатор : 8
Формат : UTF-8
Идентификатор кодека : S_TEXT/UTF8
Идентификатор кодека/Информация : UTF-8 Plain Text
Заголовок : Full
Язык : English
Default : Нет
Forced : Нет

Текст #6
Идентификатор : 9
Формат : UTF-8
Идентификатор кодека : S_TEXT/UTF8
Идентификатор кодека/Информация : UTF-8 Plain Text
Заголовок : Full SDH
Язык : English
Default : Нет
Forced : Нет

Текст #7
Идентификатор : 10
Формат : UTF-8
Идентификатор кодека : S_TEXT/UTF8
Идентификатор кодека/Информация : UTF-8 Plain Text
Заголовок : Full SDH Colored
Язык : English
Default : Нет
Forced : Нет

Меню
00:00:00.000 : :Chapter 01
00:05:46.220 : :Chapter 02
00:11:45.162 : :Chapter 03
00:15:51.533 : :Chapter 04
00:19:43.724 : :Chapter 05
00:25:26.816 : :Chapter 06
00:29:42.989 : :Chapter 07
00:35:30.670 : :Chapter 08
00:39:56.644 : :Chapter 09
00:45:14.211 : :Chapter 10
00:49:02.022 : :Chapter 11
00:54:55.917 : :Chapter 12
00:59:51.588 : :Chapter 13
01:04:43.212 : :Chapter 14
01:10:01.947 : :Chapter 15
01:16:55.986 : :Chapter 16
01:23:17.033 : :Chapter 17
01:29:33.993 : :Chapter 18
01:35:54.081 : :Chapter 19
01:39:26.752 : :Chapter 20
01:44:38.188 : :Chapter 21

"x264 log"

x264 [info]: frame I:1306 Avg QP:16.51 size:102422
x264 [info]: frame P:34677 Avg QP:19.05 size: 32450
x264 [info]: frame B:114550 Avg QP:21.90 size: 9523

x264 [info]: consecutive B-frames: 2.9% 3.2% 10.8% 20.1% 18.6% 36.5% 3.7% 1.1% 0.9% 0.6% 0.5% 1.1%

x264 [info]: ref P L0: 45.0% 11.7% 17.2% 5.7% 5.0% 3.3% 3.1% 1.5% 1.5% 1.3% 1.2% 0.9% 0.9% 0.7% 0.8% 0.1%
x264 [info]: ref B L0: 73.2% 11.4% 5.1% 2.6% 1.8% 1.5% 1.2% 0.8% 0.6% 0.6% 0.5% 0.4% 0.2% 0.1%
x264 [info]: ref B L1: 92.7% 7.3%


Ссылки для скачивания:

http//bt.hqclub.net/files/ok.png Торрент: Анатомия любви / Endless Love (2014) BDRip-AVC

Лучшая онлайн игра!


Публикация материалов сайта на сторонних ресурсах возможна только в неизменном виде.


Обсудить релиз на форуме

Вас также может заинтересовать:


  • 5
 (Голосов: 1)


Распечатать новость на принтере Драма, Мелодрама