Вас Приветствует Релиз-группа HQCLUB


Помощь ресурсу, очень ВАЖНО!!!



.


WELCOME
Добро пожаловать в наше интернет - сообщество!

Всех нас объединяет одна страсть - страсть к высококачественному кино. А это наш сайт. Ежедневно здесь мы публикуем десятки качественных, свежих, а порой и эксклюзивных релизов, которые Вы можете скачать совершенно бесплатно и без каких-либо регистраций. Посему рекомендуем Вам добавить HQClub себе в закладки, а также подписаться на нашу ленту новостей, чтобы всегда быть в курсе всех событий. Ну а если Вы такой же синий фил, как и мы, то милости просим на наш форум. И в заключение, попробуйте зарегистрироваться, ведь не так это и сложно и займет всего лишь пару минут! Вот увидите, Вам у нас понравится и Вы вольетесь в наш дружный коллектив! Ну а пока - осматривайтесь = )
Мы рады Вам !





Разомкнутый круг / The Broken Circle Breakdown (2012) BDRip 1080p

Оформил: Elheym | 22 апреля 2015 - 16:19:28 | Обращений: 499 {bookmarks_news}

http//lostpic.net/orig_images/e/f/4/ef4ab7e740f73633f5f46db35cc76064.jpg

Информация о фильме:
Название: Разомкнутый круг
Оригинальное название: The Broken Circle Breakdown
Год выхода: 2012
Жанр: драма, мелодрама, музыка
Режиссер: Феликс Ван Гроенгинен / Felix Van Groeningen
В ролях: Йохан Хелденберг, Верле Батенс, Нелл Каттриссе, Герт Ван Рампелберг, Нилс Де Кастер, Робби Клейрен, Берт Хейсентрейт, Ян Бейвут, Софи Сенте, Рут Бекманс

О фильме: Дидье играет в группе на банджо, живет в трейлере в бельгийской деревне и боготворит Америку как «землю свободы». Элис — владеет тату-салоном. Однажды они влюбляются с первого взгляда.

http//rating.kinopoisk.ru/6132.gif http//tracker.0day.kiev.ua/imdb/imdb_tt2024519.gif

Релиз от - http//hqclub.net/images/hqclub.png
Автор рипа: Elheym

Выпущено: Бельгия, Нидерланды, Menuet Producties, Topkapi Films
Продолжительность: 01:51:36
Перевод 1: Профессиональный (двухголосый, закадровый) R5
Перевод 2: Любительский (одноголосый, закадровый) Andi
Оригинальная аудиодорожка: нидерландская
Субтитры: русские (полные, форсированные (на песни)), английские (полные)
Главы: присутствуют, сохранены оригинальные

Файл:
Формат: MKV
Качество: BDRip 1080p (источник: http//lostpic.net/images/20a38122bcc5994b3cdae6e4b4b0.png / Blu-ray DUT [BROKEN_CIRCLE_BLUEBIRD] / 1080p)
Видео: 1920x816 (2.35:1), 24.0 fps, MPEG-4 AVC, ~8000 kbps avg, 0.213 bit/pixel
Аудио #1: 48 kHz, AC3 Dolby Digital, 3/2 (L,C,R,l,r) + LFE ch, ~384 kbps avg (DVO.R5)
Аудио #2: 48 kHz, AC3 Dolby Digital, 3/2 (L,C,R,l,r) + LFE ch, ~448 kbps avg (VO.ANDI)
Аудио #3: 48 kHz, AC3 Dolby Digital, 3/2 (L,C,R,l,r) + LFE ch, ~448 kbps avg (UKR.MVO.CІKAVA.ІDEJA.R5)
Аудио #4: 48 kHz, DTS, 3/2 (L,C,R,l,r) + LFE ch, ~1509 kbps avg (DUT)
Размер: 8.40 GB
Сэмпл: скачать

http//lostpic.net/thumbs_images/6/1/1/611b6ed06284eab95ad0feff372892f0.png http//lostpic.net/thumbs_images/4/0/c/40cafaa5c39bd552f23f12e4a0c43c.png http//lostpic.net/thumbs_images/d/1/2/d12cbd170b3e1811b40c6e01fd539ab6.png http//lostpic.net/thumbs_images/b/e/2/be26b4ec01a1ac26032723820d5a7103.png http//lostpic.net/thumbs_images/f/3/9/f39b8879a2b4edaf1d630e51cbb3cc7b.png

"MediaInfo"

Уникальный идентификатор : 235703264456913926482574189321293862516 (0xB152CC29022A566FAA7923D223931674)
Полное имя : The.Broken.Circle.Breakdown.2012.1080p.BluRay.2xRus.Ukr.Dut.-HQCLUB.mkv
Формат : Matroska
Версия формата : Version 2
Размер файла : 8,40 Гбайт
Продолжительность : 1 ч. 51 м.
Общий поток : 10,8 Мбит/сек
Дата кодирования : UTC 2015-04-19 16:12:07
Программа кодирования : mkvmerge v5.2.0 ('I can't explain') built on Dec 18 2011 18:12:03
Библиотека кодирования : libebml v1.2.3 + libmatroska v1.3.0
Attachements : Cover.png

Видео
Идентификатор : 1
Формат : AVC
Формат/Информация : Advanced Video Codec
Профиль формата : High@L4.1
Параметр CABAC формата : Да
Параметр ReFrames формата : 4 кадра
Идентификатор кодека : V_MPEG4/ISO/AVC
Продолжительность : 1 ч. 51 м.
Битрейт : 8000 Кбит/сек
Ширина : 1920 пикселей
Высота : 816 пикселей
Соотношение сторон : 2,35:1
Режим частоты кадров : Постоянный
Частота кадров : 24,000 кадра/сек
Цветовое пространство : YUV
Субдискретизация насыщенности : 4:2:0
Битовая глубина : 8 бит
Тип развёртки : Прогрессивная
Бит/(Пиксели*Кадры) : 0.213
Размер потока : 6,06 Гбайт (72%)
Заголовок : Разомкнутый круг / The Broken Circle Breakdown (2012) BDRip 1080p by HQCLUB [Elheym]
Библиотека кодирования : x264 core 146 r2538kMod 121396c
Настройки программы : cabac=1 / ref=4 / deblock=1:-2:-1 / analyse=0x3:0x113 / me=umh / subme=11 / psy=1 / fade_compensate=0.00 / psy_rd=1.16:0.00 / mixed_ref=1 / me_range=32 / chroma_me=1 / trellis=2 / 8x8dct=1 / cqm=0 / deadzone=21,11 / fast_pskip=0 / chroma_qp_offset=-2 / threads=6 / lookahead_threads=1 / sliced_threads=0 / nr=0 / decimate=1 / interlaced=0 / bluray_compat=0 / constrained_intra=0 / fgo=0 / bframes=16 / b_pyramid=2 / b_adapt=2 / b_bias=0 / direct=3 / weightb=1 / open_gop=0 / weightp=2 / keyint=230 / keyint_min=23 / scenecut=40 / intra_refresh=0 / rc_lookahead=40 / rc=2pass / mbtree=0 / bitrate=8000 / ratetol=1.0 / qcomp=0.80 / qpmin=0 / qpmax=69 / qpstep=4 / cplxblur=20.0 / qblur=0.5 / vbv_maxrate=50000 / vbv_bufsize=62500 / nal_hrd=none / filler=0 / ip_ratio=1.40 / pb_ratio=1.30 / aq=2:0.67
Язык : Dutch
Default : Да
Forced : Нет

Аудио #1
Идентификатор : 2
Формат : AC-3
Формат/Информация : Audio Coding 3
Расширение режима : CM (complete main)
Параметр Endianness формата : Big
Идентификатор кодека : A_AC3
Продолжительность : 1 ч. 51 м.
Вид битрейта : Постоянный
Битрейт : 384 Кбит/сек
Каналы : 6 каналов
Расположение каналов : Front: L C R, Side: L R, LFE
Частота : 48,0 КГц
Битовая глубина : 16 бит
Метод сжатия : С потерями
Размер потока : 307 Мбайт (4%)
Заголовок : АС3 5.1 @ 384 kbps - DVO, R5
Язык : Russian
Default : Нет
Forced : Нет

Аудио #2
Идентификатор : 3
Формат : AC-3
Формат/Информация : Audio Coding 3
Расширение режима : CM (complete main)
Параметр Endianness формата : Big
Идентификатор кодека : A_AC3
Продолжительность : 1 ч. 51 м.
Вид битрейта : Постоянный
Битрейт : 448 Кбит/сек
Каналы : 6 каналов
Расположение каналов : Front: L C R, Side: L R, LFE
Частота : 48,0 КГц
Битовая глубина : 16 бит
Метод сжатия : С потерями
Размер потока : 358 Мбайт (4%)
Заголовок : АС3 5.1 @ 448 kbps - VO, Andi
Язык : Russian
Default : Нет
Forced : Нет

Аудио #3
Идентификатор : 4
Формат : AC-3
Формат/Информация : Audio Coding 3
Расширение режима : CM (complete main)
Параметр Endianness формата : Big
Идентификатор кодека : A_AC3
Продолжительность : 1 ч. 51 м.
Вид битрейта : Постоянный
Битрейт : 448 Кбит/сек
Каналы : 6 каналов
Расположение каналов : Front: L C R, Side: L R, LFE
Частота : 48,0 КГц
Битовая глубина : 16 бит
Метод сжатия : С потерями
Размер потока : 358 Мбайт (4%)
Заголовок : АС3 5.1 @ 448 kbps - MVO, Cіkava іdeja
Язык : Ukrainian
Default : Нет
Forced : Нет

Аудио #4
Идентификатор : 5
Формат : DTS
Формат/Информация : Digital Theater Systems
Режим : 16
Параметр Endianness формата : Big
Идентификатор кодека : A_DTS
Продолжительность : 1 ч. 51 м.
Вид битрейта : Постоянный
Битрейт : 1509 Кбит/сек
Каналы : 6 каналов
Расположение каналов : Front: L C R, Side: L R, LFE
Частота : 48,0 КГц
Битовая глубина : 24 бит
Метод сжатия : С потерями
Размер потока : 1,18 Гбайт (14%)
Заголовок : DTS 5.1 @ 1509 kbps - Original
Язык : Dutch
Default : Нет
Forced : Нет

Текст #1
Идентификатор : 6
Формат : UTF-8
Идентификатор кодека : S_TEXT/UTF8
Идентификатор кодека/Информация : UTF-8 Plain Text
Заголовок : Full
Язык : Russian
Default : Нет
Forced : Нет

Текст #2
Идентификатор : 7
Формат : UTF-8
Идентификатор кодека : S_TEXT/UTF8
Идентификатор кодека/Информация : UTF-8 Plain Text
Заголовок : Forced [MountinFOX]
Язык : Russian
Default : Да
Forced : Нет

Текст #3
Идентификатор : 8
Формат : UTF-8
Идентификатор кодека : S_TEXT/UTF8
Идентификатор кодека/Информация : UTF-8 Plain Text
Заголовок : Full
Язык : English
Default : Нет
Forced : Нет

Меню
00:00:00.000 : :Chapter 01
00:12:06.291 : :Chapter 02
00:21:00.666 : :Chapter 03
00:30:23.541 : :Chapter 04
00:38:17.875 : :Chapter 05
00:47:24.250 : :Chapter 06
00:57:40.541 : :Chapter 07
01:06:09.583 : :Chapter 08
01:16:51.541 : :Chapter 09
01:24:06.541 : :Chapter 10
01:33:29.583 : :Chapter 11
01:43:39.083 : :Chapter 12
01:51:36.833 : :Chapter 13

"x264 log"

x264 [info]: frame I:902 Avg QP:11.87 size:171435
x264 [info]: frame P:37935 Avg QP:13.93 size: 74782
x264 [info]: frame B:121864 Avg QP:16.10 size: 30315

x264 [info]: consecutive B-frames: 3.6% 4.9% 10.2% 14.0% 14.8% 43.1% 4.6% 0.7% 1.0% 0.3% 0.3% 0.2% 0.4% 0.2% 0.2% 0.3% 1.2%

x264 [info]: ref P L0: 52.7% 7.0% 27.0% 11.7% 1.5% 0.0%
x264 [info]: ref B L0: 85.1% 12.2% 2.7%
x264 [info]: ref B L1: 92.2% 7.8%

Цитата:

Большое спасибо - MountinFOX - за форсированные субтитры.


Ссылки для скачивания:

http//bt.hqclub.net/files/ok.png Торрент: Разомкнутый круг / The Broken Circle Breakdown (2012) BDRip 1080p

Лучшая онлайн игра!


Публикация материалов сайта на сторонних ресурсах возможна только в неизменном виде.


Обсудить релиз на форуме

Вас также может заинтересовать:


  • 5
 (Голосов: 1)


Распечатать новость на принтере Драма, Мелодрама