Вас Приветствует Релиз-группа HQCLUB


Помощь ресурсу, очень ВАЖНО!!!



.


WELCOME
Добро пожаловать в наше интернет - сообщество!

Всех нас объединяет одна страсть - страсть к высококачественному кино. А это наш сайт. Ежедневно здесь мы публикуем десятки качественных, свежих, а порой и эксклюзивных релизов, которые Вы можете скачать совершенно бесплатно и без каких-либо регистраций. Посему рекомендуем Вам добавить HQClub себе в закладки, а также подписаться на нашу ленту новостей, чтобы всегда быть в курсе всех событий. Ну а если Вы такой же синий фил, как и мы, то милости просим на наш форум. И в заключение, попробуйте зарегистрироваться, ведь не так это и сложно и займет всего лишь пару минут! Вот увидите, Вам у нас понравится и Вы вольетесь в наш дружный коллектив! Ну а пока - осматривайтесь = )
Мы рады Вам !





Счастливчик / The Lucky One (2012) BDRip-AVC

Оформил: Elheym | 23 сентября 2014 - 17:18:39 | Комментариев: 1 | Обращений: 1104 {bookmarks_news}

http//lostpic.net/orig_images/f/3/b/f3bd2c976fc02662e555a0f0a2e34d.jpg

Информация о фильме:
Название: Счастливчик
Оригинальное название: The Lucky One
Год выхода: 2012
Жанр: драма, мелодрама
Режиссер: Скотт Хикс
В ролях: Зак Эфрон, Тейлор Шиллинг, Блайт Даннер, Райли Стюарт, Джей Р. Фергюсон, Адам ЛеФевр, Роберт Хэйес, Джо Крест, Расселл Дархэм Комегис, Шарон Моррис

О фильме:
Морской пехотинец Логан Тибо сумел остаться в живых после трех военных миссий в Ираке. Своим талисманом он считает фото, которое всегда носит с собой — на нем совершенно незнакомая ему женщина. По возвращении в Северную Каролину Тибо решает разыскать ее.

http//rating.kinopoisk.ru/461784.gif http//tracker.0day.kiev.ua/imdb/imdb_tt1327194.gif

Релиз от - http//hqclub.net/images/hqclub.png
Автор рипа: Elheym

Выпущено: США, DiNovi Pictures, Langley Park Productions, Village Roadshow Pictures, Warner Bros. Pictures
Продолжительность: 01:40:54
Перевод: Профессиональный (полное дублирование) + Профессиональный (полное дублирование), украинский
Оригинальная аудио дорожка: английский
Субтитры: русские (полные: BD, Notabenoid; форсированные), украинские (полные), английские (полные, полные SDH)
Главы: присутствуют, сохранены оригинальные

Файл:
Формат: MKV
Качество: BDRip-AVC (источник: http//lostpic.net/images/20a38122bcc5994b3cdae6e4b4b0.png / Blu-ray Disc / 1080p)
Видео: 1152x480 (2.40:1), 23.976 fps, MPEG-4 AVC, ~4173 kbps avg, 0.315 bit/pixel
Аудио #1: AC3 Dolby Digital, 3/2 (L,C,R,l,r) + LFE ch, ~448 kbps (DUB)
Аудио #2: AC3 Dolby Digital, 3/2 (L,C,R,l,r) + LFE ch, ~448 kbps (UKR)
Аудио #3: AC3 Dolby Digital, 3/2 (L,C,R,l,r) + LFE ch, ~448 kbps (ENG)
Размер: 3.96 GB
Сэмпл: скачать

http//lostpic.net/thumbs_images/e/2/f/e2f590c3afa9d01a41f4b170d3b3.png http//lostpic.net/thumbs_images/6/3/f/63f03b3ea8742553fa5fe0051e8c2d58.png http//lostpic.net/thumbs_images/1/4/9/150c3b5b0706bf00ee0f42dcf0959b.png http//lostpic.net/thumbs_images/a/2/0/a20af354e6bec6dc6ca7bea9b9a5e309.png http//lostpic.net/thumbs_images/5/0/3/503482f30cae81b387221dcb3be343.png http//lostpic.net/thumbs_images/4/8/8/8820a14bdea6f698dbbe989c38f8c4.png

"MediaInfo"

Уникальный идентификатор : 203167471846010800432519690047668541834 (0x98D8A1BC07D137DD9600B29B3356D98A)
Полное имя : The.Lucky.One.2012.TRIPLE.BDRip-AVC.x264.AC3.-HQCLUB.mkv
Формат : Matroska
Версия формата : Version 2
Размер файла : 3,97 Гбайт
Продолжительность : 1 ч. 40 м.
Общий поток : 5629 Кбит/сек
Дата кодирования : UTC 2014-09-23 12:14:59
Программа кодирования : mkvmerge v5.2.0 ('I can't explain') built on Dec 18 2011 18:12:03
Библиотека кодирования : libebml v1.2.3 + libmatroska v1.3.0

Видео
Идентификатор : 1
Формат : AVC
Формат/Информация : Advanced Video Codec
Профиль формата : High@L4.1
Параметр CABAC формата : Да
Параметр ReFrames формата : 11 кадров
Идентификатор кодека : V_MPEG4/ISO/AVC
Продолжительность : 1 ч. 40 м.
Битрейт : 4173 Кбит/сек
Ширина : 1152 пикселя
Высота : 480 пикселей
Соотношение сторон : 2,40:1
Режим частоты кадров : Постоянный
Частота кадров : 23,976 кадра/сек
Цветовое пространство : YUV
Субдискретизация насыщенности : 4:2:0
Битовая глубина : 8 бит
Тип развёртки : Прогрессивная
Бит/(Пиксели*Кадры) : 0.315
Размер потока : 2,94 Гбайт (74%)
Заголовок : Счастливчик / The Lucky One (2012) BDRip-AVC by HQCLUB [Elheym]
Библиотека кодирования : x264 core 142 r2479 dd79a61
Настройки программы : cabac=1 / ref=11 / deblock=1:-3:-2 / analyse=0x3:0x113 / me=umh / subme=11 / psy=1 / psy_rd=1.05:0.00 / mixed_ref=1 / me_range=32 / chroma_me=1 / trellis=2 / 8x8dct=1 / cqm=0 / deadzone=21,11 / fast_pskip=0 / chroma_qp_offset=-4 / threads=6 / lookahead_threads=1 / sliced_threads=0 / nr=0 / decimate=1 / interlaced=0 / bluray_compat=0 / constrained_intra=0 / bframes=10 / b_pyramid=2 / b_adapt=2 / b_bias=0 / direct=1 / weightb=1 / open_gop=0 / weightp=2 / keyint=240 / keyint_min=23 / scenecut=40 / intra_refresh=0 / rc_lookahead=40 / rc=crf / mbtree=1 / crf=17.2 / qcomp=0.60 / qpmin=0 / qpmax=69 / qpstep=4 / vbv_maxrate=50000 / vbv_bufsize=62500 / crf_max=0.0 / nal_hrd=none / filler=0 / ip_ratio=1.40 / aq=1:0.90
Язык : English
Default : Да
Forced : Нет

Аудио #1
Идентификатор : 2
Формат : AC-3
Формат/Информация : Audio Coding 3
Расширение режима : CM (complete main)
Параметр Endianness формата : Big
Идентификатор кодека : A_AC3
Продолжительность : 1 ч. 40 м.
Вид битрейта : Постоянный
Битрейт : 448 Кбит/сек
Каналы : 6 каналов
Расположение каналов : Front: L C R, Side: L R, LFE
Частота : 48,0 КГц
Битовая глубина : 16 бит
Метод сжатия : С потерями
Размер потока : 323 Мбайт (8%)
Заголовок : АС3 5.1 @ 448 kbps - Dub
Язык : Russian
Default : Нет
Forced : Нет

Аудио #2
Идентификатор : 3
Формат : AC-3
Формат/Информация : Audio Coding 3
Расширение режима : CM (complete main)
Параметр Endianness формата : Big
Идентификатор кодека : A_AC3
Продолжительность : 1 ч. 40 м.
Вид битрейта : Постоянный
Битрейт : 448 Кбит/сек
Каналы : 6 каналов
Расположение каналов : Front: L C R, Side: L R, LFE
Частота : 48,0 КГц
Битовая глубина : 16 бит
Метод сжатия : С потерями
Размер потока : 323 Мбайт (8%)
Заголовок : АС3 5.1 @ 448 kbps - Dub
Язык : Ukrainian
Default : Нет
Forced : Нет

Аудио #3
Идентификатор : 4
Формат : AC-3
Формат/Информация : Audio Coding 3
Расширение режима : CM (complete main)
Параметр Endianness формата : Big
Идентификатор кодека : A_AC3
Продолжительность : 1 ч. 40 м.
Вид битрейта : Постоянный
Битрейт : 448 Кбит/сек
Каналы : 6 каналов
Расположение каналов : Front: L C R, Side: L R, LFE
Частота : 48,0 КГц
Битовая глубина : 16 бит
Метод сжатия : С потерями
Размер потока : 323 Мбайт (8%)
Заголовок : АС3 5.1 @ 448 kbps - Original
Язык : English
Default : Нет
Forced : Нет

Текст #1
Идентификатор : 5
Формат : UTF-8
Идентификатор кодека : S_TEXT/UTF8
Идентификатор кодека/Информация : UTF-8 Plain Text
Заголовок : Full, BD
Язык : Russian
Default : Нет
Forced : Нет

Текст #2
Идентификатор : 6
Формат : UTF-8
Идентификатор кодека : S_TEXT/UTF8
Идентификатор кодека/Информация : UTF-8 Plain Text
Заголовок : Full, Notabenoid
Язык : Russian
Default : Нет
Forced : Нет

Текст #3
Идентификатор : 7
Формат : UTF-8
Идентификатор кодека : S_TEXT/UTF8
Идентификатор кодека/Информация : UTF-8 Plain Text
Заголовок : Forced
Язык : Russian
Default : Нет
Forced : Нет

Текст #4
Идентификатор : 8
Формат : UTF-8
Идентификатор кодека : S_TEXT/UTF8
Идентификатор кодека/Информация : UTF-8 Plain Text
Заголовок : Full
Язык : Ukrainian
Default : Нет
Forced : Нет

Текст #5
Идентификатор : 9
Формат : UTF-8
Идентификатор кодека : S_TEXT/UTF8
Идентификатор кодека/Информация : UTF-8 Plain Text
Заголовок : Full
Язык : English
Default : Нет
Forced : Нет

Текст #6
Идентификатор : 10
Формат : UTF-8
Идентификатор кодека : S_TEXT/UTF8
Идентификатор кодека/Информация : UTF-8 Plain Text
Заголовок : Full SDH
Язык : English
Default : Нет
Forced : Нет

Меню
00:00:00.000 : :Chapter 01
00:10:27.585 : :Chapter 02
00:20:08.790 : :Chapter 03
00:28:47.475 : :Chapter 04
00:39:55.601 : :Chapter 05
00:50:50.046 : :Chapter 06
01:00:29.000 : :Chapter 07
01:09:19.405 : :Chapter 08
01:20:21.316 : :Chapter 09
01:29:14.891 : :Chapter 10
01:37:16.163 : :Chapter 11
01:40:53.213 : :Chapter 12

"x264 log"

x264 [info]: frame I:1371 Avg QP:15.02 size:143663
x264 [info]: frame P:29620 Avg QP:18.80 size: 48159
x264 [info]: frame B:114147 Avg QP:21.42 size: 14168

x264 [info]: consecutive B-frames: 1.8% 1.6% 3.2% 30.3% 13.4% 28.5% 6.0% 13.4% 0.9% 0.2% 0.7%

x264 [info]: ref P L0: 44.0% 10.6% 19.3% 6.2% 6.2% 3.6% 3.6% 1.7% 1.8% 1.3% 1.6% 0.1% 0.0%
x264 [info]: ref B L0: 76.8% 10.7% 4.5% 2.4% 1.8% 1.4% 1.0% 0.7% 0.4% 0.2%
x264 [info]: ref B L1: 94.0% 6.0%


Ссылки для скачивания:

http//bt.hqclub.net/files/ok.png Торрент: Счастливчик / The Lucky One (2012) BDRip-AVC

Лучшая онлайн игра!


Публикация материалов сайта на сторонних ресурсах возможна только в неизменном виде.


Обсудить релиз на форуме

Вас также может заинтересовать:


  • 5
 (Голосов: 1)


Распечатать новость на принтере Драма, Мелодрама

КОММЕНТАРИИ

 №1. ru4lan

Статус: Кинокритик | Новостей: 0 | Комментариев: 2736
ru4lan неплохой фильм
~~~

28.09.2014 - 13:06   цитировать