Вас Приветствует Релиз-группа HQCLUB


Помощь ресурсу, очень ВАЖНО!!!



.


WELCOME
Добро пожаловать в наше интернет - сообщество!

Всех нас объединяет одна страсть - страсть к высококачественному кино. А это наш сайт. Ежедневно здесь мы публикуем десятки качественных, свежих, а порой и эксклюзивных релизов, которые Вы можете скачать совершенно бесплатно и без каких-либо регистраций. Посему рекомендуем Вам добавить HQClub себе в закладки, а также подписаться на нашу ленту новостей, чтобы всегда быть в курсе всех событий. Ну а если Вы такой же синий фил, как и мы, то милости просим на наш форум. И в заключение, попробуйте зарегистрироваться, ведь не так это и сложно и займет всего лишь пару минут! Вот увидите, Вам у нас понравится и Вы вольетесь в наш дружный коллектив! Ну а пока - осматривайтесь = )
Мы рады Вам !





Вдали от обезумевшей толпы / Far from the Madding Crowd (2015) BDRip-AVC

Оформил: Elheym | 22 сентября 2015 - 14:27:17 | Обращений: 521 {bookmarks_news}

http//lostpic.net/images/2015/09/20/c2182e131ea91f9e1a56035da8e1a5a2.jpg

Информация о фильме:
Название: Вдали от обезумевшей толпы
Оригинальное название: Far from the Madding Crowd
Год выхода: 2015
Жанр: драма, мелодрама
Режиссер: Томас Винтерберг / Thomas Vinterberg
В ролях: Кэри Маллиган, Маттиас Шонартс, Майкл Шин, Джуно Темпл, Том Стёрридж, Тилли Восберг, Марк Уингетт, Дориан Лок, Сэм Филлипс, Брэдли Холл

О фильме: Унаследовав от дядюшки богатую ферму, юная Батшеба Эвердин энергично берется за дело, набрав себе рабочих. Берет она и разорившегося фермера Габриэля Оука — человека опытного и честного. Габриэль в свое время просил её руки, но потерпел неудачу. Теперь ей предлагает руку и сердце сосед, зажиточный фермер Уильям Болдвуд, но своенравная Батшеба пока не соглашается стать женой, попросив себе время на раздумья. Встреча с самовлюбленным красавцем сержантом Фрэнком Троем становится роковой для Батшебы…

http//rating.kinopoisk.ru/764613.gif http//tracker.0day.kiev.ua/imdb/imdb_tt2935476.gif

Релиз от - http//i62.fastpic.ru/big/2014/0702/3e/4ca0c27a93261c4d900a30afd0a03f3e.png
Автор рипа: Elheym

Выпущено: Великобритания, США ‖ BBC Films, DNA Films, Fox Searchlight Pictures
Продолжительность: 01:58:40
Перевод: Профессиональный (полное дублирование) BD EUR
Оригинальная аудиодорожка: английская
Субтитры: русские (полные: BD, iTunes; форсированные), украинские (полные: BD, iTunes; форсированные), английские (полные, SDH, SDH цветные)
Главы: присутствуют, сохранены оригинальные

Дополнительные аудиодорожки:
+ Профессиональный (полное дублирование) украинский (альтернативная ссылка)

Файл:
Формат: MKV
Качество: (источник: http//lostpic.net/images/20a38122bcc5994b3cdae6e4b4b0.png / Blu-ray EUR [FAR_FROM_MADDING_CROWD_BD_EUR] / 1080p)
Видео: 1152x480 (2.40:1), 23.976 fps, MPEG-4 AVC, ~3900 kbps avg, 0.294 bit/pixel
Аудио #1: 48 kHz, AC3 Dolby Digital, 3/2 (L,C,R,l,r) + LFE ch, ~448 kbps avg (DUB)
Аудио #2: 48 kHz, AC3 Dolby Digital, 3/2 (L,C,R,l,r) + LFE ch, ~448 kbps avg (ENG)
Аудио #3: 48 kHz, AC3 Dolby Digital, 3/2 (L,C,R,l,r) + LFE ch, ~448 kbps avg (UKR) (отдельно)
Сэмпл: скачать

http//lostpic.net/images/2015/09/22/777d7087d6d172c3ac7ff2013806.th.png http//lostpic.net/images/2015/09/22/a76c8a7be0e4c4a6b77212f3f6daf152.th.png http//lostpic.net/images/2015/09/22/ff04cdb727a8ce850f6417afae36d239.th.png http//lostpic.net/images/2015/09/22/7c27ee9e09ce45302b7f625b252591.th.png http//lostpic.net/images/2015/09/22/5cb2f05508b9734023db8513ef0d6e30.th.png http//lostpic.net/images/2015/09/22/9361c6b8a5e3f5847137ed5136b2a6.th.png

"MediaInfo"

Уникальный идентификатор : 221923157199533593152624140037996324703 (0xA6F4D86AD8CC0D239E0736B2A7DEA75F)
Полное имя : Far.from.the.Madding.Crowd.2015.DUAL.BDRip-AVC.x264.AC3.-HQCLUB.mkv
Формат : Matroska
Версия формата : Version 2
Размер файла : 3,97 Гбайт
Продолжительность : 1 ч. 58 м.
Общий поток : 4792 Кбит/сек
Название фильма : Вдали от обезумевшей толпы / Far from the Madding Crowd (2015) BDRip-AVC by Elheym [HQCLUB]
Дата кодирования : UTC 2015-09-22 10:50:46
Программа кодирования : mkvmerge v5.2.0 ('I can't explain') built on Dec 18 2011 18:12:03
Библиотека кодирования : libebml v1.2.3 + libmatroska v1.3.0
Attachements : Cover.jpg

Видео
Идентификатор : 1
Формат : AVC
Формат/Информация : Advanced Video Codec
Профиль формата : High@L4
Параметр CABAC формата : Да
Параметр ReFrames формата : 14 кадров
Идентификатор кодека : V_MPEG4/ISO/AVC
Продолжительность : 1 ч. 58 м.
Битрейт : 3900 Кбит/сек
Ширина : 1152 пикселя
Высота : 480 пикселей
Соотношение сторон : 2,40:1
Режим частоты кадров : Постоянный
Частота кадров : 23,976 кадра/сек
Цветовое пространство : YUV
Субдискретизация насыщенности : 4:2:0
Битовая глубина : 8 бит
Тип развёртки : Прогрессивная
Бит/(Пиксели*Кадры) : 0.294
Размер потока : 3,15 Гбайт (79%)
Заголовок : Вдали от обезумевшей толпы / Far from the Madding Crowd (2015) BDRip-AVC by Elheym [HQCLUB]
Библиотека кодирования : x264 core 148 r2579+50 65f745f t_mod_Custom [8-bit@all X86_64]
Настройки программы : cabac=1 / ref=14 / deblock=1:-3:-2 / analyse=0x3:0x113 / me=umh / subme=11 / psy=1 / fade_compensate=0.00 / psy_rd=1.05:0.20 / mixed_ref=1 / me_range=32 / chroma_me=1 / trellis=2 / 8x8dct=1 / cqm=0 / deadzone=21,11 / fast_pskip=0 / chroma_qp_offset=-3 / threads=6 / lookahead_threads=2 / sliced_threads=0 / nr=0 / decimate=0 / interlaced=0 / bluray_compat=0 / constrained_intra=0 / fgo=0 / bframes=16 / b_pyramid=2 / b_adapt=2 / b_bias=0 / direct=3 / weightb=1 / open_gop=0 / weightp=2 / keyint=240 / keyint_min=23 / scenecut=40 / intra_refresh=0 / rc_lookahead=80 / rc=2pass / mbtree=0 / bitrate=3900 / ratetol=1.0 / qcomp=0.80 / qpmin=0:0:0 / qpmax=69:69:69 / qpstep=4 / cplxblur=20.0 / qblur=0.5 / vbv_maxrate=20000 / vbv_bufsize=25000 / nal_hrd=none / filler=0 / ip_ratio=1.40 / pb_ratio=1.30 / aq=2:0.85 / aq-sensitivity=15.00 / aq-factor=1.00:1.00:1.00 / aq2=0 / aq3=0
Язык : English
Default : Да
Forced : Нет

Аудио #1
Идентификатор : 2
Формат : AC-3
Формат/Информация : Audio Coding 3
Расширение режима : CM (complete main)
Параметр Endianness формата : Big
Идентификатор кодека : A_AC3
Продолжительность : 1 ч. 58 м.
Вид битрейта : Постоянный
Битрейт : 448 Кбит/сек
Каналы : 6 каналов
Расположение каналов : Front: L C R, Side: L R, LFE
Частота : 48,0 КГц
Метод сжатия : С потерями
Размер потока : 380 Мбайт (9%)
Язык : Russian
Default : Нет
Forced : Нет

Аудио #2
Идентификатор : 3
Формат : AC-3
Формат/Информация : Audio Coding 3
Расширение режима : CM (complete main)
Параметр Endianness формата : Big
Идентификатор кодека : A_AC3
Продолжительность : 1 ч. 58 м.
Вид битрейта : Постоянный
Битрейт : 448 Кбит/сек
Каналы : 6 каналов
Расположение каналов : Front: L C R, Side: L R, LFE
Частота : 48,0 КГц
Метод сжатия : С потерями
Размер потока : 380 Мбайт (9%)
Язык : English
Default : Нет
Forced : Нет

Текст #1
Идентификатор : 4
Формат : UTF-8
Идентификатор кодека : S_TEXT/UTF8
Идентификатор кодека/Информация : UTF-8 Plain Text
Заголовок : Full, BD
Язык : Russian
Default : Нет
Forced : Нет

Текст #2
Идентификатор : 5
Формат : UTF-8
Идентификатор кодека : S_TEXT/UTF8
Идентификатор кодека/Информация : UTF-8 Plain Text
Заголовок : Full, iTunes
Язык : Russian
Default : Нет
Forced : Нет

Текст #3
Идентификатор : 6
Формат : UTF-8
Идентификатор кодека : S_TEXT/UTF8
Идентификатор кодека/Информация : UTF-8 Plain Text
Заголовок : Forced
Язык : Russian
Default : Нет
Forced : Нет

Текст #4
Идентификатор : 7
Формат : UTF-8
Идентификатор кодека : S_TEXT/UTF8
Идентификатор кодека/Информация : UTF-8 Plain Text
Заголовок : Full, BD
Язык : Ukrainian
Default : Нет
Forced : Нет

Текст #5
Идентификатор : 8
Формат : UTF-8
Идентификатор кодека : S_TEXT/UTF8
Идентификатор кодека/Информация : UTF-8 Plain Text
Заголовок : Full, iTunes
Язык : Ukrainian
Default : Нет
Forced : Нет

Текст #6
Идентификатор : 9
Формат : UTF-8
Идентификатор кодека : S_TEXT/UTF8
Идентификатор кодека/Информация : UTF-8 Plain Text
Заголовок : Forced
Язык : Ukrainian
Default : Нет
Forced : Нет

Текст #7
Идентификатор : 10
Формат : UTF-8
Идентификатор кодека : S_TEXT/UTF8
Идентификатор кодека/Информация : UTF-8 Plain Text
Заголовок : Full
Язык : English
Default : Нет
Forced : Нет

Текст #8
Идентификатор : 11
Формат : UTF-8
Идентификатор кодека : S_TEXT/UTF8
Идентификатор кодека/Информация : UTF-8 Plain Text
Заголовок : SDH
Язык : English
Default : Нет
Forced : Нет

Текст #9
Идентификатор : 12
Формат : UTF-8
Идентификатор кодека : S_TEXT/UTF8
Идентификатор кодека/Информация : UTF-8 Plain Text
Заголовок : SDH Colored
Язык : English
Default : Нет
Forced : Нет

Меню
00:00:00.000 : :Chapter 01
...
01:58:39.904 : :Chapter 33

"x264 log"

x264 [info]: frame I:1088 Avg QP:14.30 size:101502
x264 [info]: frame P:33826 Avg QP:16.90 size: 40067
x264 [info]: frame B:135799 Avg QP:18.83 size: 14720

x264 [info]: consecutive B-frames: 1.9% 2.2% 6.8% 12.1% 15.6% 39.4% 7.5% 3.7% 2.7% 1.6% 1.7% 0.8% 1.7% 1.4% 0.5% 0.1% 0.3%

x264 [info]: ref P L0: 39.6% 8.5% 19.3% 6.8% 6.3% 4.1% 4.1% 2.0% 2.1% 1.5% 1.6% 1.2% 1.3% 1.1% 0.2% 0.0%
x264 [info]: ref B L0: 67.1% 13.5% 6.4% 3.4% 2.4% 2.0% 1.5% 1.0% 0.8% 0.7% 0.6% 0.4% 0.1%
x264 [info]: ref B L1: 91.4% 8.6%


Ссылки для скачивания:

http//bt.hqclub.net/files/ok.png Торрент: Вдали от обезумевшей толпы / Far from the Madding Crowd (2015) BDRip-AVC

Лучшая онлайн игра!


Публикация материалов сайта на сторонних ресурсах возможна только в неизменном виде.


Обсудить релиз на форуме

Вас также может заинтересовать:


  • 5
 (Голосов: 1)


Распечатать новость на принтере Драма, Мелодрама
Обновлено: 22.09.2015 - 14:28