Вас Приветствует Релиз-группа HQCLUB


Помощь ресурсу, очень ВАЖНО!!!



.


WELCOME
Добро пожаловать в наше интернет - сообщество!

Всех нас объединяет одна страсть - страсть к высококачественному кино. А это наш сайт. Ежедневно здесь мы публикуем десятки качественных, свежих, а порой и эксклюзивных релизов, которые Вы можете скачать совершенно бесплатно и без каких-либо регистраций. Посему рекомендуем Вам добавить HQClub себе в закладки, а также подписаться на нашу ленту новостей, чтобы всегда быть в курсе всех событий. Ну а если Вы такой же синий фил, как и мы, то милости просим на наш форум. И в заключение, попробуйте зарегистрироваться, ведь не так это и сложно и займет всего лишь пару минут! Вот увидите, Вам у нас понравится и Вы вольетесь в наш дружный коллектив! Ну а пока - осматривайтесь = )
Мы рады Вам !





Охотник на лис / Foxcatcher (2014) BDRip-AVC

Оформил: Elheym | 26 мая 2015 - 12:37:17 | Комментариев: 2 | Обращений: 710 {bookmarks_news}

http//lostpic.net/orig_images/7/b/a/7ba7051f2cbd9c1066e3d93435db.png

Информация о фильме:
Название: Охотник на лис
Оригинальное название: Foxcatcher
Год выхода: 2014
Жанр: драма, спорт, история
Режиссер: Беннетт Миллер / Bennett Miller
В ролях: Стив Карелл, Ченнинг Татум, Марк Руффало, Сиенна Миллер, Ванесса Редгрейв, Энтони Майкл Холл, Гай Бойд, Бретт Райс, Джексон Фрейзер, Самара Ли

О фильме: Мультимиллионер Джон Дюпон приглашает в свое поместье обладателя олимпийской золотой медали по борьбе Марка Шульца для подготовки команды к Олимпийским играм в Сеуле 1988 года. В надежде посвятить всего себя тренировкам, достойно выступить и выйти из тени своего брата, легендарного борца Дейва Шульца, Марк принимает предложение. Но параноик Дюпон затевает игру в кошки-мышки с Марком и Дейвом.

«Эта история шокировала мир»



http//rating.kinopoisk.ru/638053.gif http//tracker.0day.kiev.ua/imdb/imdb_tt1100089.gif

Релиз от - http//hqclub.net/images/hqclub.png
Автор рипа: Elheym

Выпущено: США ‖ Annapurna Pictures, Likely Story, Media Rights Capital
Продолжительность: 02:14:26
Перевод: Профессиональный (полное дублирование) BD RUS
Оригинальная аудиодорожка: английская
Субтитры: русские (полные: Janetta), английские (полные x2, SDH, SDH цветные)
Главы: присутствуют, сохранены оригинальные

Дополнительные аудиодорожки:
+ Профессиональный (многоголосый, закадровый) ААА-sound, украинский

Файл:
Формат: MKV
Качество: BDRip-AVC (источник: http//i28.fastpic.ru/big/2011/1013/a8/a3d28e80c9544f4c572189fc892ea8.gif / Blu-ray Remux [FOXCATCHER_REMUX_HDCLUB] / 1080p)
Видео: 1150x622 (1.85:1), 23.976 fps, MPEG-4 AVC, ~3750 kbps avg, 0.219 bit/pixel
Аудио #1: 48 kHz, AC3 Dolby Digital, 3/2 (L,C,R,l,r) + LFE ch, ~448 kbps avg (DUB)
Аудио #2: 48 kHz, AC3 Dolby Digital, 3/2 (L,C,R,l,r) + LFE ch, ~448 kbps avg (ENG)
Аудио #3: 48 kHz, AC3 Dolby Digital, 3/2 (L,C,R,l,r) + LFE ch, ~448 kbps avg (UKR.MVO) (отдельно)
Размер: 4.36 GB
Сэмпл: скачать

http//lostpic.net/thumbs_images/f/0/8/f08e3159ff5153de263cd362632721.png http//lostpic.net/thumbs_images/8/b/f/8bfcd515e044197f8a6b63ed5517d396.png http//lostpic.net/thumbs_images/e/9/2/e92be30d4416e94c2af189d4c6ab.png http//lostpic.net/thumbs_images/0/d/6/0d6e07b5cdbb712bd56c6e2e7f236de6.png http//lostpic.net/thumbs_images/a/5/5/a55bc119fc46e62bb8826a0da310107c.png http//lostpic.net/thumbs_images/5/c/8/5c82e9cd603475f3e864272da3dc3589.png

"MediaInfo"

Уникальный идентификатор : 251085656796598421848732623725706656587 (0xBCE556A823218F1F878E0EA4AB24BB4B)
Полное имя : Foxcatcher.2014.DUAL.BDRip-AVC.x264.AC3.-HQCLUB.mkv
Формат : Matroska
Версия формата : Version 2
Размер файла : 4,36 Гбайт
Продолжительность : 2 ч. 14 м.
Общий поток : 4647 Кбит/сек
Название фильма : Охотник на лис / Foxcatcher (2014) BDRip-AVC by HQCLUB [Elheym]
Дата кодирования : UTC 2015-05-26 08:41:35
Программа кодирования : mkvmerge v5.2.0 ('I can't explain') built on Dec 18 2011 18:12:03
Библиотека кодирования : libebml v1.2.3 + libmatroska v1.3.0
Attachements : Cover.png

Видео
Идентификатор : 1
Формат : AVC
Формат/Информация : Advanced Video Codec
Профиль формата : High@L4.0
Параметр CABAC формата : Да
Параметр ReFrames формата : 10 кадров
Идентификатор кодека : V_MPEG4/ISO/AVC
Продолжительность : 2 ч. 14 м.
Битрейт : 3750 Кбит/сек
Ширина : 1150 пикселей
Высота : 622 пикселя
Соотношение сторон : 1,85:1
Режим частоты кадров : Постоянный
Частота кадров : 23,976 кадра/сек
Цветовое пространство : YUV
Субдискретизация насыщенности : 4:2:0
Битовая глубина : 8 бит
Тип развёртки : Прогрессивная
Бит/(Пиксели*Кадры) : 0.219
Размер потока : 3,44 Гбайт (79%)
Заголовок : Охотник на лис / Foxcatcher (2014) BDRip-AVC by HQCLUB [Elheym]
Библиотека кодирования : x264 core 146 r0+2586 e393126 t_mod_Custom [8-bit@all X86_64]
Настройки программы : cabac=1 / ref=10 / deblock=1:-3:-3 / analyse=0x3:0x113 / me=umh / subme=11 / psy=1 / fade_compensate=0.00 / psy_rd=1.05:0.00 / mixed_ref=1 / me_range=32 / chroma_me=1 / trellis=2 / 8x8dct=1 / cqm=0 / deadzone=21,11 / fast_pskip=0 / chroma_qp_offset=-2 / threads=6 / lookahead_threads=2 / sliced_threads=0 / nr=0 / decimate=0 / interlaced=0 / bluray_compat=0 / constrained_intra=0 / fgo=0 / bframes=13 / b_pyramid=2 / b_adapt=2 / b_bias=0 / direct=3 / weightb=1 / open_gop=0 / weightp=2 / keyint=230 / keyint_min=23 / scenecut=40 / intra_refresh=0 / rc_lookahead=80 / rc=2pass / mbtree=0 / bitrate=3750 / ratetol=1.0 / qcomp=0.90 / qpmin=0:0:0 / qpmax=69:69:69 / qpstep=4 / cplxblur=20.0 / qblur=0.5 / vbv_maxrate=20000 / vbv_bufsize=25000 / nal_hrd=none / filler=0 / ip_ratio=1.40 / pb_ratio=1.30 / aq=2:1.00 / aq-sensitivity=10.00 / aq-factor=1.00:1.00:1.00 / aq2=0 / aq3=0 / zones=182553,193391,b=0.25
Язык : English
Default : Да
Forced : Нет

Аудио #1
Идентификатор : 2
Формат : AC-3
Формат/Информация : Audio Coding 3
Расширение режима : CM (complete main)
Параметр Endianness формата : Big
Идентификатор кодека : A_AC3
Продолжительность : 2 ч. 14 м.
Вид битрейта : Постоянный
Битрейт : 448 Кбит/сек
Каналы : 6 каналов
Расположение каналов : Front: L C R, Side: L R, LFE
Частота : 48,0 КГц
Битовая глубина : 16 бит
Метод сжатия : С потерями
Размер потока : 431 Мбайт (10%)
Заголовок : АС3 5.1 @ 448 kbps - Dub, BD RUS
Язык : Russian
Default : Нет
Forced : Нет

Аудио #2
Идентификатор : 3
Формат : AC-3
Формат/Информация : Audio Coding 3
Расширение режима : CM (complete main)
Параметр Endianness формата : Big
Идентификатор кодека : A_AC3
Продолжительность : 2 ч. 14 м.
Вид битрейта : Постоянный
Битрейт : 448 Кбит/сек
Каналы : 6 каналов
Расположение каналов : Front: L C R, Side: L R, LFE
Частота : 48,0 КГц
Битовая глубина : 16 бит
Метод сжатия : С потерями
Размер потока : 431 Мбайт (10%)
Заголовок : АС3 5.1 @ 448 kbps - Original
Язык : English
Default : Нет
Forced : Нет

Текст #1
Идентификатор : 4
Формат : UTF-8
Идентификатор кодека : S_TEXT/UTF8
Идентификатор кодека/Информация : UTF-8 Plain Text
Заголовок : Full [Janetta]
Язык : Russian
Default : Нет
Forced : Нет

Текст #2
Идентификатор : 5
Формат : UTF-8
Идентификатор кодека : S_TEXT/UTF8
Идентификатор кодека/Информация : UTF-8 Plain Text
Заголовок : Full, v1
Язык : English
Default : Нет
Forced : Нет

Текст #3
Идентификатор : 6
Формат : UTF-8
Идентификатор кодека : S_TEXT/UTF8
Идентификатор кодека/Информация : UTF-8 Plain Text
Заголовок : Full, v2
Язык : English
Default : Нет
Forced : Нет

Текст #4
Идентификатор : 7
Формат : UTF-8
Идентификатор кодека : S_TEXT/UTF8
Идентификатор кодека/Информация : UTF-8 Plain Text
Заголовок : Full SDH
Язык : English
Default : Нет
Forced : Нет

Текст #5
Идентификатор : 8
Формат : UTF-8
Идентификатор кодека : S_TEXT/UTF8
Идентификатор кодека/Информация : UTF-8 Plain Text
Заголовок : Full SDH Colored
Язык : English
Default : Нет
Forced : Нет

Меню
00:00:00.000 : :Chapter 01
00:06:21.504 : :Chapter 02
00:14:56.769 : :Chapter 03
00:27:36.153 : :Chapter 04
00:36:29.518 : :Chapter 05
00:40:51.738 : :Chapter 06
00:47:27.801 : :Chapter 07
00:58:13.655 : :Chapter 08
01:06:09.965 : :Chapter 09
01:16:35.421 : :Chapter 10
01:21:49.194 : :Chapter 11
01:25:58.278 : :Chapter 12
01:37:25.337 : :Chapter 13
01:44:00.567 : :Chapter 14
01:51:13.750 : :Chapter 15
01:56:19.680 : :Chapter 16

"x264 log"

x264 [info]: frame I:1189 Avg QP:14.48 size:109969
x264 [info]: frame P:36567 Avg QP:17.77 size: 40250
x264 [info]: frame B:155636 Avg QP:19.14 size: 13986

x264 [info]: consecutive B-frames: 1.4% 1.7% 4.8% 13.9% 16.1% 31.3% 8.9% 13.6% 2.5% 0.8% 1.0% 3.2% 0.7% 0.2%

x264 [info]: ref P L0: 39.1% 6.4% 19.5% 7.9% 7.5% 5.3% 5.5% 2.9% 3.1% 2.6% 0.3% 0.0%
x264 [info]: ref B L0: 62.2% 14.3% 8.1% 4.7% 3.5% 3.2% 2.6% 1.1% 0.4%
x264 [info]: ref B L1: 90.7% 9.3%

Цитата:

За украінську доріжку велика подяка hurtom


Ссылки для скачивания:

http//bt.hqclub.net/files/ok.png Торрент: Охотник на лис / Foxcatcher (2014) BDRip-AVC

Лучшая онлайн игра!


Публикация материалов сайта на сторонних ресурсах возможна только в неизменном виде.


Обсудить релиз на форуме

Вас также может заинтересовать:


  • 4
 (Голосов: 3)


Распечатать новость на принтере Драма, Спорт
Обновлено: 26.05.2015 - 16:55

КОММЕНТАРИИ

 №1. ru4lan

Статус: Кинокритик | Новостей: 0 | Комментариев: 2736
ru4lan вызвал бы Карелина, ему бы не поздоровилось бы
~~~

26.05.2015 - 19:41   цитировать  

 №2. RedGeneral28

Статус: Новичок | Новостей: 0 | Комментариев: 48
RedGeneral28 ru4lan, у них разные весовые категории и стили,а так они были вместе на Олимпиаде в 88.
~~~

29.05.2015 - 19:24   цитировать