Вас Приветствует Релиз-группа HQCLUB


Помощь ресурсу, очень ВАЖНО!!!



.


WELCOME
Добро пожаловать в наше интернет - сообщество!

Всех нас объединяет одна страсть - страсть к высококачественному кино. А это наш сайт. Ежедневно здесь мы публикуем десятки качественных, свежих, а порой и эксклюзивных релизов, которые Вы можете скачать совершенно бесплатно и без каких-либо регистраций. Посему рекомендуем Вам добавить HQClub себе в закладки, а также подписаться на нашу ленту новостей, чтобы всегда быть в курсе всех событий. Ну а если Вы такой же синий фил, как и мы, то милости просим на наш форум. И в заключение, попробуйте зарегистрироваться, ведь не так это и сложно и займет всего лишь пару минут! Вот увидите, Вам у нас понравится и Вы вольетесь в наш дружный коллектив! Ну а пока - осматривайтесь = )
Мы рады Вам !





Египтянин / The Egyptian (1954) BDRip 720p

Оформил: Sky™ | 8 ноября 2012 - 18:37:36 | Комментариев: 1 | Обращений: 1091 {bookmarks_news}

[size=4]Египтянин / The Egyptian (1954) BDRip 720p
от [/size]
[size=5]HQCLUB[/size]

http//lostpic.net/images/ffc5dc27991855a4005906a95fc6fb3e.png

Информация о фильме:
Название: Египтянин
Оригинальное название: The Egyptian
Год выхода: 1954
Жанр: драма, история
Режиссер: Майкл Кертиц
В ролях: Джин Симмонс, Виктор Мэтьюр, Джин Тирни, Майкл Уайлдинг, Белла Дарви, Питер Устинов, Эдмунд Пурдом, Джудит Эвелин, Генри Дэниелл, Джон Кэрредин

О фильме: Египет XIV век до нашей эры. Страной правит фараон Аменхотеп IV, решивший изменить религию многобожия на поклонение единому божеству Атону. Культ Атона небыл принят ни священнослужителями, ни жителями Египта и вызвал огромное негодование.

В это же время Синух молодой египтянин выбирает профессию врача, и волею судьбы назначается лекарем самого Фараона. Он становится невольным участником дворцовых интриг, заговоров и предательств.

http//www.kinopoisk.ru/rating/17589.gif http//toponlinekino.ru/imdb/tt00469.png

Релиз от - http//hqclub.net/images/hqclub.png
Автор рипа: Sky™

Выпущено: США (Twentieth Century Fox Film Corporation)
Продолжительность: 2:19:39
Перевод: Профессиональный (многоголосый, закадровый) 5й канал + Профессиональный (двуголосый, закадровый) \"Светла\" (Гланц и Королева) + Оригинальная звуковая дорожка (Английский)
Субтитры: Нет
Сохранены оригинальные чаптеры как на Blu-ray.

Файл:
Формат: mkv
Качество: BDRip 720p (источник: Гость / Blu-Ray Remux / 1080p)
Видео: 1280x502 (2,550:1), 23.976 fps, X264@L4.1 ~7503 kbps avg, 0.48 bit/pixel
Аудио #1: 48 kHz, AC3 Dolby Digital, 2/0 (L,R) ch, ~192 kbps (RUS) 5й канал
Аудио #2: 48 kHz, AC3 Dolby Digital, 3/2 (L,C,R,l,r) + LFE ch, ~640 kbps (RUS) \"Светла\" (Гланц и Королева)
Аудио #3: 48 kHz, AC3 Dolby Digital, 3/2 (L,C,R,l,r) + LFE ch, ~640 kbps (ENG)
Размер: 9147.45 Mb
http//lostpic.net/images/1b899dddff9c84e7020a856612f5c646.png

http//lostpic.net/thumbs/19cbfc86d3901df9fb59f54655118de9.png http//lostpic.net/thumbs/7b7ed5266446e423e1927f79007fae.png http//lostpic.net/thumbs/a052e2719e5d5327708020faa0b1f6f9.png http//lostpic.net/thumbs/65b583711cf601e82788f38b471418.png http//lostpic.net/thumbs/ace2f5312383b7e3c7cca47eb93d1d.png http//lostpic.net/thumbs/9f0944b774adb5599105eaa596ed30bc.png http//lostpic.net/thumbs/fc6401b85651baa5cbba65f0beeeeabe.png http//lostpic.net/thumbs/61263ee944a0e56a1158758337111d08.png http//lostpic.net/thumbs/f2e21dc61660bdbdf0565d985ba79af8.png
MediaINFO
[HTML]Полное имя : Egiptyanin.1954.BDRip.720p.H264.AC3.-HQCLUB.mkv
Формат : Matroska
Версия формата : Version 2
Размер файла : 8,93 Гбайт
Продолжительность : 2 ч. 19 м.
Общий поток : 9157 Кбит/сек
Дата кодирования : UTC 2012-11-08 03:05:59
Программа кодирования : mkvmerge v5.7.0 ('The Whirlwind') built on Jul 8 2012 20:08:51
Библиотека кодирования : libebml v1.2.3 + libmatroska v1.3.0

Видео
Идентификатор : 1
Формат : AVC
Формат/Информация : Advanced Video Codec
Профиль формата : High@L4.1
Параметр CABAC формата : Да
Параметр ReFrames формата : 9 кадров
Идентификатор кодека : V_MPEG4/ISO/AVC
Продолжительность : 2 ч. 19 м.
Битрейт : 7503 Кбит/сек
Ширина : 1280 пикселей
Высота : 502 пикселя
Соотношение сторон : 2,550
Частота кадров : 23,976 кадра/сек
Цветовое пространство : YUV
Субдискретизация насыщенности : 4:2:0
Битовая глубина : 8 бит
Тип развёртки : Прогрессивная
Бит/(Пиксели*Кадры) : 0.487
Размер потока : 7,32 Гбайт (82%)
Заголовок : Египтянин / The Egyptian (1954) BDRip 720p | HQCLUB
Библиотека кодирования : x264 core 120 r2146 bcd41db
Настройки программы : cabac=1 / ref=9 / deblock=1:-3:-2 / analyse=0x3:0x133 / me=umh / subme=9 / psy=1 / psy_rd=1.00:0.00 / mixed_ref=1 / me_range=64 / chroma_me=1 / trellis=2 / 8x8dct=1 / cqm=0 / deadzone=21,11 / fast_pskip=1 / chroma_qp_offset=-4 / threads=12 / sliced_threads=0 / nr=0 / decimate=1 / interlaced=0 / bluray_compat=0 / constrained_intra=0 / bframes=11 / b_pyramid=2 / b_adapt=2 / b_bias=0 / direct=1 / weightb=1 / open_gop=0 / weightp=2 / keyint=240 / keyint_min=24 / scenecut=40 / intra_refresh=0 / rc=cqp / mbtree=0 / qp=20 / ip_ratio=1.40 / pb_ratio=1.30 / aq=0
Язык : English

Аудио #1
Идентификатор : 2
Формат : AC-3
Формат/Информация : Audio Coding 3
Расширение режима : CM (complete main)
Идентификатор кодека : A_AC3
Продолжительность : 2 ч. 19 м.
Вид битрейта : Постоянный
Битрейт : 192 Кбит/сек
Каналы : 2 канала
Расположение каналов : Front: L R
Частота : 48,0 КГц
Битовая глубина : 16 бит
Метод сжатия : С потерями
Размер потока : 192 Мбайт (2%)
Заголовок : Многоголосый (5й канал) AC3 2.0 @ 192 kbps
Язык : Russian

Аудио #2
Идентификатор : 3
Формат : AC-3
Формат/Информация : Audio Coding 3
Расширение режима : CM (complete main)
Идентификатор кодека : A_AC3
Продолжительность : 2 ч. 19 м.
Вид битрейта : Постоянный
Битрейт : 640 Кбит/сек
Каналы : 6 каналов
Расположение каналов : Front: L C R, Side: L R, LFE
Частота : 48,0 КГц
Битовая глубина : 16 бит
Метод сжатия : С потерями
Размер потока : 639 Мбайт (7%)
Заголовок : Двуголосый (Гланц и Королева) AC3 5.1 @ 640 kbps
Язык : Russian

Аудио #3
Идентификатор : 4
Формат : AC-3
Формат/Информация : Audio Coding 3
Расширение режима : CM (complete main)
Идентификатор кодека : A_AC3
Продолжительность : 2 ч. 19 м.
Вид битрейта : Постоянный
Битрейт : 640 Кбит/сек
Каналы : 6 каналов
Расположение каналов : Front: L C R, Side: L R, LFE
Частота : 48,0 КГц
Битовая глубина : 16 бит
Метод сжатия : С потерями
Размер потока : 639 Мбайт (7%)
Заголовок : Оригинал AC3 5.1 @ 640 kbps
Язык : English

Меню
00:00:00.000 : en:00:00:00.000
00:10:00.600 : en:00:10:00.600
00:20:01.200 : en:00:20:01.200
00:30:01.800 : en:00:30:01.800
00:40:02.400 : en:00:40:02.400
00:50:03.000 : en:00:50:03.000
01:00:03.600 : en:01:00:03.600
01:10:04.200 : en:01:10:04.200
01:20:04.800 : en:01:20:04.800
01:30:05.400 : en:01:30:05.400
01:40:06.000 : en:01:40:06.000
01:50:06.600 : en:01:50:06.600
02:00:07.200 : en:02:00:07.200
02:10:07.800 : en:02:10:07.800[/HTML]

x264 log
[HTML]---[NoImage] x264 [info]: frame I:1126 Avg QP:17.00 size:178657
---[NoImage] x264 [info]: frame P:35123 Avg QP:20.00 size: 70198
---[NoImage] x264 [info]: frame B:164668 Avg QP:21.79 size: 32675
---[NoImage] x264 [info]: consecutive B-frames: 0.7% 0.2% 0.9% 8.4% 14.8% 59.3% 7.6% 2.6% 3.0% 1.7% 0.5% 0.2%[/HTML]

Ссылки для скачивания:

http//bt.hqclub.net/files/ok.png Торрент: Египтянин / The Egyptian (1954) BDRip 720p

Лучшая онлайн игра!


Публикация материалов сайта на сторонних ресурсах возможна только в неизменном виде.


Обсудить релиз на форуме

Вас также может заинтересовать:


  • 1
 (Голосов: 1)


Распечатать новость на принтере Драма

КОММЕНТАРИИ

 №1. ru4lan

Статус: Кинокритик | Новостей: 0 | Комментариев: 2736
ru4lan 9 гигов!ai
~~~

9.11.2012 - 02:04   цитировать