Вас Приветствует Релиз-группа HQCLUB


Помощь ресурсу, очень ВАЖНО!!!



.


WELCOME
Добро пожаловать в наше интернет - сообщество!

Всех нас объединяет одна страсть - страсть к высококачественному кино. А это наш сайт. Ежедневно здесь мы публикуем десятки качественных, свежих, а порой и эксклюзивных релизов, которые Вы можете скачать совершенно бесплатно и без каких-либо регистраций. Посему рекомендуем Вам добавить HQClub себе в закладки, а также подписаться на нашу ленту новостей, чтобы всегда быть в курсе всех событий. Ну а если Вы такой же синий фил, как и мы, то милости просим на наш форум. И в заключение, попробуйте зарегистрироваться, ведь не так это и сложно и займет всего лишь пару минут! Вот увидите, Вам у нас понравится и Вы вольетесь в наш дружный коллектив! Ну а пока - осматривайтесь = )
Мы рады Вам !





Хористы / Les Choristes (2004) BDRip-AVC

Оформил: Elheym | 27 ноября 2015 - 17:04:52 | Комментариев: 1 | Обращений: 575 {bookmarks_news}

http//lostpic.net/images/e7f60ff4f034f07c52b2941d5c3a5c63.png

Информация о фильме:
Название: Хористы
Оригинальное название: Les Choristes
Год выхода: 2004
Жанр: драма, музыка
Режиссер: Кристоф Барратье / Christophe Barratier
В ролях: Жерар Жюньо, Франсуа Берлеан, Кад Мерад, Жан-Поль Боннэр, Мари Бюнель, Жак Перрен, Дидье Фламан, Жан-Батист Монье, Максанс Перрен, Грегори Гатиньоль, Филипп дю Жанеран

О фильме: Франция, 1949 год. Отчаявшись найти работу, учитель музыки Клемент Матье попадает в интернат для трудных подростков. Там он видит, к каким жестоким «воспитательным мерам» прибегает ректор этого заведения Рашан. Чем больше издевается Рашан над мальчиками, тем агрессивнее они становятся.

Добродушного по натуре Матье возмущают эти методы, но он не в состоянии открыто протестовать. Но однажды ему, автору многочисленных музыкальных произведений, которые он скромно прячет в своей комнате, приходит в голову замечательная идея: организовать школьный хор.

http//rating.kinopoisk.ru/511.gif http//tracker.0day.kiev.ua/imdb/imdb_tt0372824.gif

Релиз от - http//i62.fastpic.ru/big/2014/0702/3e/4ca0c27a93261c4d900a30afd0a03f3e.png
Автор рипа: Elheym

Выпущено: Франция, Швейцария, Германия ‖ Banque Populaire Images 4, Canal+ [fr], Centre National de la Cinématographie (CNC), CP Medien AG, Dan Valley Film AG, France 2 Cinéma, Galatée Films, Novo Arturo Films, Pathé Renn Productions, Procirep, Vega Film AG
Продолжительность: 01:36:17
Перевод: Профессиональный (полное дублирование) МОСФИЛЬМ-мастер
Оригинальная аудиодорожка: французская
Субтитры: русские (полные), английские (полные)
Главы: присутствуют, сохранены оригинальные

Файл:
Формат: MKV
Качество: BDRip-AVC (источник: lizing48 / Blu-Ray Remux [Les Choristes RUS REMUX] / 1080p)
Видео: 1146x488 (2.35:1), 23.976 fps, MPEG-4 AVC, ~3000 kbps avg, 0.224 bit/pixel
Аудио #1: 48 kHz, AC3 Dolby Digital, 3/2 (L,C,R,l,r) + LFE ch, ~448 kbps avg (DUB)
Аудио #2: 48 kHz, AC3 Dolby Digital, 3/2 (L,C,R,l,r) + LFE ch, ~448 kbps avg (FRE)
Сэмпл: скачать

http//img10.lostpic.net/2015/11/27/f82ee179caa8f7f4ed5d1411ee430da6.th.png http//img10.lostpic.net/2015/11/27/a40dd30588a8e163d3a80c3144658f.th.png http//img10.lostpic.net/2015/11/27/728c328c61b0eaa15e84affb1c4a40be.th.png http//img10.lostpic.net/2015/11/27/36000df62ec5c9063c1a9ad2c3c23359.th.png http//img10.lostpic.net/2015/11/27/476e4b6ca9c12ea46cde55638b7cc4.th.png http//img10.lostpic.net/2015/11/27/e17f1c5906581d78000327fa58f8a67e.th.png

"MediaInfo"

Уникальный идентификатор : 244478698834697738390345716778189196614 (0xB7ECE27AB84C72CD8BC387B671740D46)
Полное имя : Les.Choristes.2004.DUAL.BDRip-AVC.x264.AC3.-HQCLUB.mkv
Формат : Matroska
Версия формата : Version 2
Размер файла : 2,62 Гбайт
Продолжительность : 1 ч. 36 м.
Общий поток : 3897 Кбит/сек
Название фильма : Хористы / Les Choristes (2004) BDRip-AVC by Elheym [HQCLUB]
Дата кодирования : UTC 2015-11-27 13:13:55
Программа кодирования : mkvmerge v5.2.0 ('I can't explain') built on Dec 18 2011 18:12:03
Библиотека кодирования : libebml v1.2.3 + libmatroska v1.3.0
Attachements : cover.png

Видео
Идентификатор : 1
Формат : AVC
Формат/Информация : Advanced Video Codec
Профиль формата : High@L4
Параметр CABAC формата : Да
Параметр ReFrames формата : 12 кадров
Идентификатор кодека : V_MPEG4/ISO/AVC
Продолжительность : 1 ч. 36 м.
Битрейт : 3000 Кбит/сек
Ширина : 1146 пикселей
Высота : 488 пикселей
Соотношение сторон : 2,35:1
Режим частоты кадров : Постоянный
Частота кадров : 23,976 кадра/сек
Цветовое пространство : YUV
Субдискретизация насыщенности : 4:2:0
Битовая глубина : 8 бит
Тип развёртки : Прогрессивная
Бит/(Пиксели*Кадры) : 0.224
Размер потока : 1,97 Гбайт (75%)
Заголовок : Хористы / Les Choristes (2004) BDRip-AVC by Elheym [HQCLUB]
Библиотека кодирования : x264 core 148 r2638+53 bb29004 t_mod_Custom [8-bit@all X86_64]
Настройки программы : cabac=1 / ref=13 / deblock=1:-2:-1 / analyse=0x3:0x113 / me=umh / subme=11 / psy=1 / fade_compensate=0.00 / psy_rd=1.10:0.05 / mixed_ref=1 / me_range=48 / chroma_me=1 / trellis=2 / 8x8dct=1 / cqm=0 / deadzone=21,11 / fast_pskip=0 / chroma_qp_offset=-3 / threads=6 / lookahead_threads=2 / sliced_threads=0 / nr=0 / decimate=0 / interlaced=0 / bluray_compat=0 / constrained_intra=0 / fgo=0 / bframes=10 / b_pyramid=1 / b_adapt=2 / b_bias=0 / direct=3 / weightb=1 / open_gop=0 / weightp=2 / keyint=240 / keyint_min=23 / scenecut=40 / intra_refresh=0 / rc_lookahead=80 / rc=2pass / mbtree=0 / bitrate=3000 / ratetol=1.0 / qcomp=0.70 / qpmin=0:0:0 / qpmax=69:69:69 / qpstep=4 / cplxblur=20.0 / qblur=0.5 / vbv_maxrate=20000 / vbv_bufsize=25000 / nal_hrd=none / filler=0 / ip_ratio=1.40 / pb_ratio=1.30 / aq=2:0.90 / aq-sensitivity=15.00 / aq-factor=1.00:1.00:1.00 / aq2=0 / aq3=0
Язык : French
Default : Да
Forced : Нет

Аудио #1
Идентификатор : 2
Формат : AC-3
Формат/Информация : Audio Coding 3
Расширение режима : CM (complete main)
Параметр Endianness формата : Big
Идентификатор кодека : A_AC3
Продолжительность : 1 ч. 36 м.
Вид битрейта : Постоянный
Битрейт : 448 Кбит/сек
Каналы : 6 каналов
Расположение каналов : Front: L C R, Side: L R, LFE
Частота : 48,0 КГц
Метод сжатия : С потерями
Размер потока : 309 Мбайт (11%)
Заголовок : АС3 5.1 @ 448 kbps - Dub
Язык : Russian
Default : Нет
Forced : Нет

Аудио #2
Идентификатор : 3
Формат : AC-3
Формат/Информация : Audio Coding 3
Расширение режима : CM (complete main)
Параметр Endianness формата : Big
Идентификатор кодека : A_AC3
Продолжительность : 1 ч. 36 м.
Вид битрейта : Постоянный
Битрейт : 448 Кбит/сек
Каналы : 6 каналов
Расположение каналов : Front: L C R, Side: L R, LFE
Частота : 48,0 КГц
Метод сжатия : С потерями
Размер потока : 309 Мбайт (11%)
Заголовок : АС3 5.1 @ 448 kbps - Original
Язык : French
Default : Нет
Forced : Нет

Текст #1
Идентификатор : 4
Формат : UTF-8
Идентификатор кодека : S_TEXT/UTF8
Идентификатор кодека/Информация : UTF-8 Plain Text
Заголовок : Full
Язык : Russian
Default : Нет
Forced : Нет

Текст #2
Идентификатор : 5
Формат : UTF-8
Идентификатор кодека : S_TEXT/UTF8
Идентификатор кодека/Информация : UTF-8 Plain Text
Заголовок : Full
Язык : English
Default : Нет
Forced : Нет

Меню
00:00:00.000 : :Chapter 01
00:05:00.000 : :Chapter 02
00:10:00.000 : :Chapter 03
00:15:00.000 : :Chapter 04
00:20:00.000 : :Chapter 05
00:25:00.000 : :Chapter 06
00:30:00.000 : :Chapter 07
00:35:00.000 : :Chapter 08
00:40:00.000 : :Chapter 09
00:45:00.000 : :Chapter 10
00:50:00.000 : :Chapter 11
00:55:00.000 : :Chapter 12
01:00:00.000 : :Chapter 13
01:05:00.000 : :Chapter 14
01:10:00.000 : :Chapter 15
01:15:00.000 : :Chapter 16
01:20:00.000 : :Chapter 17
01:25:00.000 : :Chapter 18
01:30:00.000 : :Chapter 19
01:35:00.000 : :Chapter 20

"x264 log"

x264 [info]: frame I:1096 Avg QP:16.46 size: 90006
x264 [info]: frame P:28259 Avg QP:19.28 size: 30899
x264 [info]: frame B:109173 Avg QP:20.92 size: 10929

x264 [info]: consecutive B-frames: 1.4% 1.8% 4.4% 22.6% 13.6% 47.9% 3.4% 3.2% 0.6% 0.8% 0.3%

x264 [info]: ref P L0: 52.1% 14.1% 13.0% 5.8% 4.1% 3.1% 2.4% 1.4% 1.2% 1.0% 0.9% 0.8% 0.0% 0.0%
x264 [info]: ref B L0: 81.2% 7.8% 4.0% 2.0% 1.4% 1.1% 0.9% 0.5% 0.4% 0.4% 0.2%
x264 [info]: ref B L1: 93.2% 6.8%


Ссылки для скачивания:

http//bt.hqclub.net/files/ok.png Торрент: Хористы / Les Choristes (2004) BDRip-AVC

Лучшая онлайн игра!


Публикация материалов сайта на сторонних ресурсах возможна только в неизменном виде.


Обсудить релиз на форуме

Вас также может заинтересовать:


  • 5
 (Голосов: 3)


Распечатать новость на принтере Драма
Обновлено: 30.11.2015 - 19:07

КОММЕНТАРИИ

 №1. ru4lan

Статус: Кинокритик | Новостей: 0 | Комментариев: 2736
ru4lan мне понравился
~~~

27.11.2015 - 19:24   цитировать