Вас Приветствует Релиз-группа HQCLUB


Помощь ресурсу, очень ВАЖНО!!!



.


WELCOME
Добро пожаловать в наше интернет - сообщество!

Всех нас объединяет одна страсть - страсть к высококачественному кино. А это наш сайт. Ежедневно здесь мы публикуем десятки качественных, свежих, а порой и эксклюзивных релизов, которые Вы можете скачать совершенно бесплатно и без каких-либо регистраций. Посему рекомендуем Вам добавить HQClub себе в закладки, а также подписаться на нашу ленту новостей, чтобы всегда быть в курсе всех событий. Ну а если Вы такой же синий фил, как и мы, то милости просим на наш форум. И в заключение, попробуйте зарегистрироваться, ведь не так это и сложно и займет всего лишь пару минут! Вот увидите, Вам у нас понравится и Вы вольетесь в наш дружный коллектив! Ну а пока - осматривайтесь = )
Мы рады Вам !





Невозможное / Lo imposible / The Impossible (2012) BDRip 720p | US-Transfer

Оформил: Sky™ | 4 сентября 2013 - 21:56:59 | Комментариев: 1 | Обращений: 1522 {bookmarks_news}

http//lostpic.net/images/3ae424ee7194bd4a65f045b75a6cd1.png

Информация о фильме:
Название: Невозможное
Оригинальное название: Lo imposible / The Impossible
Год выхода: 2012
Жанр: Драма, фильм-катастрофа
Режиссер: Хуан Антонио Байона
В ролях: Наоми Уоттс, Эван МакГрегор, Том Холлэнд, Сэмюэл Джослин, Оакли Пендергаст, Марта Этура, Шенке Меринг, Джеральдин Чаплин, Плой Хиндачоте, Жомжаои Сэ-Лим, Йохан Сандберг, Жан Роланд Сандберг, Ла-Орнг Тонгруанг, Тор Клатали, Дуглас Йоханссон, Эмилио Риккарди, Ворарат Джутакео, Карун Консаман, Николя Харрисон, Джон Альбазини, Гитте Уитт, Брюс Блэйн, Селисия Арнольд, Питер Туинстра, Эстер Дэвис, Доминик Пауэр, Саринрат Томас

О фильме: Во все времена человек был практически беззащитен перед стихиями природы, будь то ураган, тайфун, паводок, снежная лавина или цунами. И даже в наше время высокого развития технологий и создания мощных машин ситуация не изменилась. Действие этого фильма происходит в 2004 году. На город обрушивается цунами огромной силы, разрушая все, что можно разрушить. Людям остается только спасать себя и своих близких любыми путями, прилагая невероятные усилия. Здесь волей-неволей приходится раскрывать самые непредвиденные возможности своего организма и мышления. Вот именно так и становится невозможное возможным.

http//rating.kinopoisk.ru/518037.gif

Релиз от - http//hqclub.net/images/hqclub.png
Автор рипа: Sky™

Выпущено: Испания (Apaches Entertainment, Canal+ Espana, ...)
Продолжительность: 01:53:42
Перевод: Профессиональный (полное дублирование) R5 + Профессиональный (двуголосый, закадровый) Омикрон + Авторский (одноголосый, закадровый) Ю. Сербин + Любительский (одноголосый, закадровый) А. Дасевич + Оригинальная звуковая дорожка (Английская)
Субтитры: Русские, Английские (*.srt, отключаемые)

Дорожки №2,3,4 получены наложением чистых голосов на центр декодированного DTS-HD MA.
-Перевод и озвучивание студией «Омикрон» осуществлен в рамках сервиса "Озвучивание". Спонсоры: rubak, tambov68, Кириллка, sybir, ultrajeka, Efish, PoHHaN, Merwos, raoulx, andron3033, capral555, communist21, vanuuatuu, yarsat, gelom, khapev2, CristaS, timur1965, meil
-За выкуп чистого голоса Сербина спасибо alexdeath, denismgn1987, Luka69, serlim, GKillah и пользователям ресурса e180.ru
-За дорожку №4 спасибо Neo_s-у


Файл:
Формат: mkv
Качество: BDRip 720p (источник: http//lostpic.net/images/953a96a00e963ac6907f450837a55c1e.png / Blu-Ray Disc / 1080p)
Видео: 1280x544 (2.35:1),23.976 fps, X264@L4.1 ~3673 kbps avg, 0.22 bit/pixel
Аудио #1: 48 kHz, AC3 Dolby Digital, 3/2 (L,C,R,l,r) + LFE ch, ~448 kbps avg (RUS) R5
Аудио #2: 48 kHz, AC3 Dolby Digital, 3/2 (L,C,R,l,r) + LFE ch, ~640 kbps avg (RUS) DVO Омикрон
Аудио #3: 48 kHz, AC3 Dolby Digital, 3/2 (L,C,R,l,r) + LFE ch, ~640 kbps avg (RUS) AVO Ю. Сербин
Аудио #4: 48 kHz, AC3 Dolby Digital, 3/2 (L,C,R,l,r) + LFE ch, ~640 kbps avg (RUS) VO А. Дасевич
Аудио #5: 48 kHz, AC3 Dolby Digital, 3/2 (L,C,R,l,r) + LFE ch, ~640 kbps avg (ENG)
Размер: 5544.23 Mb
http//lostpic.net/images/1b899dddff9c84e7020a856612f5c646.png

MediaINFO
[HTML]Полное имя : E:\HQCLUB\AVC\Nevozmozhnoe.US.2012.BDRip.720p.x264.AC3.-HQCLUB.mkv
Формат : Matroska
Версия формата : Version 4 / Version 2
Размер файла : 5,41 Гбайт
Продолжительность : 1 ч. 53 м.
Общий поток : 6817 Кбит/сек
Дата кодирования : UTC 2010-02-22 21:41:31
Программа кодирования : mkvmerge v5.9.0 ('On The Loose') built on Dec 9 2012 15:37:01
Библиотека кодирования : libebml v1.3.0 + libmatroska v1.4.0

Видео
Идентификатор : 1
Формат : AVC
Формат/Информация : Advanced Video Codec
Профиль формата : High@L4.1
Параметр CABAC формата : Да
Параметр ReFrames формата : 4 кадра
Идентификатор кодека : V_MPEG4/ISO/AVC
Продолжительность : 1 ч. 53 м.
Битрейт : 3673 Кбит/сек
Ширина : 1280 пикселей
Высота : 544 пикселя
Соотношение сторон : 2,35:1
Частота кадров : 23,976 кадра/сек
Цветовое пространство : YUV
Субдискретизация насыщенности : 4:2:0
Битовая глубина : 8 бит
Тип развёртки : Прогрессивная
Бит/(Пиксели*Кадры) : 0.220
Размер потока : 2,92 Гбайт (54%)
Заголовок : Невозможное / The Impossible / Lo imposible (2012) BDRip 720p | HQCLUB
Библиотека кодирования : x264 core 133 r2334 a3ac64b
Настройки программы : cabac=1 / ref=4 / deblock=1:-3:-2 / analyse=0x3:0x113 / me=umh / subme=11 / psy=1 / psy_rd=1.00:0.00 / mixed_ref=1 / me_range=48 / chroma_me=1 / trellis=2 / 8x8dct=1 / cqm=0 / deadzone=21,11 / fast_pskip=1 / chroma_qp_offset=-4 / threads=12 / lookahead_threads=3 / sliced_threads=0 / nr=0 / decimate=1 / interlaced=0 / bluray_compat=0 / constrained_intra=0 / bframes=16 / b_pyramid=2 / b_adapt=2 / b_bias=0 / direct=1 / weightb=1 / open_gop=0 / weightp=2 / keyint=240 / keyint_min=24 / scenecut=40 / intra_refresh=0 / rc_lookahead=40 / rc=crf / mbtree=0 / crf=18.5 / qcomp=0.60 / qpmin=0 / qpmax=69 / qpstep=4 / vbv_maxrate=62500 / vbv_bufsize=50000 / crf_max=0.0 / nal_hrd=none / ip_ratio=1.40 / pb_ratio=1.30 / aq=1:0.70
Язык : English
Default : Да
Forced : Нет

Аудио #1
Идентификатор : 2
Формат : AC-3
Формат/Информация : Audio Coding 3
Расширение режима : CM (complete main)
Идентификатор кодека : A_AC3
Продолжительность : 1 ч. 53 м.
Вид битрейта : Постоянный
Битрейт : 448 Кбит/сек
Каналы : 6 каналов
Расположение каналов : Front: L C R, Side: L R, LFE
Частота : 48,0 КГц
Битовая глубина : 16 бит
Метод сжатия : С потерями
Размер потока : 364 Мбайт (7%)
Заголовок : Дубляж (R5)
Язык : Russian
Default : Да
Forced : Нет

Аудио #2
Идентификатор : 3
Формат : AC-3
Формат/Информация : Audio Coding 3
Расширение режима : CM (complete main)
Идентификатор кодека : A_AC3
Продолжительность : 1 ч. 53 м.
Вид битрейта : Постоянный
Битрейт : 640 Кбит/сек
Каналы : 6 каналов
Расположение каналов : Front: L C R, Side: L R, LFE
Частота : 48,0 КГц
Битовая глубина : 16 бит
Метод сжатия : С потерями
Размер потока : 521 Мбайт (9%)
Заголовок : Профессиональный (двуголосый, закадровый ) Омикрон
Язык : Russian
Default : Нет
Forced : Нет

Аудио #3
Идентификатор : 4
Формат : AC-3
Формат/Информация : Audio Coding 3
Расширение режима : CM (complete main)
Идентификатор кодека : A_AC3
Продолжительность : 1 ч. 53 м.
Вид битрейта : Постоянный
Битрейт : 640 Кбит/сек
Каналы : 6 каналов
Расположение каналов : Front: L C R, Side: L R, LFE
Частота : 48,0 КГц
Битовая глубина : 16 бит
Метод сжатия : С потерями
Размер потока : 521 Мбайт (9%)
Заголовок : Авторский (одноголосый, закадровый) Ю. Сербин
Язык : Russian
Default : Нет
Forced : Нет

Аудио #4
Идентификатор : 5
Формат : AC-3
Формат/Информация : Audio Coding 3
Расширение режима : CM (complete main)
Идентификатор кодека : A_AC3
Продолжительность : 1 ч. 53 м.
Вид битрейта : Постоянный
Битрейт : 640 Кбит/сек
Каналы : 6 каналов
Расположение каналов : Front: L C R, Side: L R, LFE
Частота : 48,0 КГц
Битовая глубина : 16 бит
Метод сжатия : С потерями
Размер потока : 521 Мбайт (9%)
Заголовок : Любительский (одноголосый, закадровый) А. Дасевич
Язык : Russian
Default : Нет
Forced : Нет

Аудио #5
Идентификатор : 6
Формат : AC-3
Формат/Информация : Audio Coding 3
Расширение режима : CM (complete main)
Идентификатор кодека : A_AC3
Продолжительность : 1 ч. 53 м.
Вид битрейта : Постоянный
Битрейт : 640 Кбит/сек
Каналы : 6 каналов
Расположение каналов : Front: L C R, Side: L R, LFE
Частота : 48,0 КГц
Битовая глубина : 16 бит
Метод сжатия : С потерями
Размер потока : 521 Мбайт (9%)
Заголовок : Оригинал
Язык : English
Default : Нет
Forced : Нет

Текст #1
Идентификатор : 7
Формат : UTF-8
Идентификатор кодека : S_TEXT/UTF8
Идентификатор кодека/Информация : UTF-8 Plain Text
Заголовок : Полные
Язык : Russian
Default : Да
Forced : Нет

Текст #2
Идентификатор : 8
Формат : UTF-8
Идентификатор кодека : S_TEXT/UTF8
Идентификатор кодека/Информация : UTF-8 Plain Text
Заголовок : Полные
Язык : English
Default : Нет
Forced : Нет

Меню
00:00:00.000 : en:00:00:00.000
00:04:04.828 : en:00:04:04.828
00:07:57.936 : en:00:07:57.936
00:10:43.226 : en:00:10:43.226
00:14:19.358 : en:00:14:19.358
00:20:02.034 : en:00:20:02.034
00:26:34.927 : en:00:26:34.927
00:29:48.036 : en:00:29:48.036
00:33:29.257 : en:00:33:29.257
00:37:35.628 : en:00:37:35.628
00:41:41.791 : en:00:41:41.791
00:46:09.350 : en:00:46:09.350
00:50:03.167 : en:00:50:03.167
00:54:20.799 : en:00:54:20.799
01:00:10.607 : en:01:00:10.607
01:03:29.222 : en:01:03:29.222
01:07:59.409 : en:01:07:59.409
01:13:45.963 : en:01:13:45.963
01:18:23.741 : en:01:18:23.741
01:22:39.037 : en:01:22:39.037
01:26:44.074 : en:01:26:44.074
01:32:09.941 : en:01:32:09.941
01:37:15.038 : en:01:37:15.038
01:42:38.652 : en:01:42:38.652[/HTML]

x264 log
[HTML]---[Information] [31.08.2013 20:10:54] x264 [info]: frame I:993 Avg QP:17.59 size: 89864
---[Information] [31.08.2013 20:10:54] x264 [info]: frame P:37242 Avg QP:19.51 size: 39503
---[Information] [31.08.2013 20:10:54] x264 [info]: frame B:125349 Avg QP:21.80 size: 13449
---[Information] [31.08.2013 20:10:54] x264 [info]: consecutive B-frames: 2.7% 4.0% 7.9% 24.0% 19.3% 25.6% 6.5% 4.1% 1.3% 0.7% 0.6% 1.1% 0.4% 0.3% 0.3% 0.8% 0.4%
---[Information] [31.08.2013 20:10:54] x264 [info]: mb I I16..4: 10.2% 74.3% 15.5%
---[Information] [31.08.2013 20:10:54] x264 [info]: mb P I16..4: 1.8% 14.0% 1.7% P16..4: 28.3% 36.4% 11.5% 0.0% 0.0% skip: 6.2%
---[Information] [31.08.2013 20:10:54] x264 [info]: mb B I16..4: 0.3% 1.3% 0.2% B16..8: 37.7% 19.9% 3.4% direct: 5.7% skip:31.3% L0:41.2% L1:46.8% BI:12.0%
---[Information] [31.08.2013 20:10:54] x264 [info]: 8x8 transform intra:77.4% inter:63.7%
---[Information] [31.08.2013 20:10:54] x264 [info]: coded y,uvDC,uvAC intra: 85.4% 90.2% 70.6% inter: 30.2% 23.0% 4.3%
---[Information] [31.08.2013 20:10:54] x264 [info]: i16 v,h,dc,p: 74% 5% 3% 17%
---[Information] [31.08.2013 20:10:54] x264 [info]: i8 v,h,dc,ddl,ddr,vr,hd,vl,hu: 6% 7% 4% 11% 17% 15% 16% 12% 14%
---[Information] [31.08.2013 20:10:54] x264 [info]: i4 v,h,dc,ddl,ddr,vr,hd,vl,hu: 7% 7% 3% 9% 17% 15% 16% 11% 14%
---[Information] [31.08.2013 20:10:54] x264 [info]: i8c dc,h,v,p: 41% 25% 15% 19%
---[Information] [31.08.2013 20:10:54] x264 [info]: Weighted P-Frames: Y:5.3% UV:3.2%
---[Information] [31.08.2013 20:10:54] x264 [info]: ref P L0: 54.4% 13.7% 21.2% 9.2% 1.5% 0.1%
---[Information] [31.08.2013 20:10:54] x264 [info]: ref B L0: 88.0% 9.8% 2.2%
---[Information] [31.08.2013 20:10:54] x264 [info]: ref B L1: 93.4% 6.6%[/HTML]


http//lostpic.net/thumbs_images/3/5/5/3559dbe59430b7abab28939aef77cf00.png http//lostpic.net/thumbs_images/0/6/d/06db68558e5d77f217ed000a6d8c79.png http//lostpic.net/thumbs_images/c/2/f/c2f3bfb9ef80591628e78bc92295de69.png http//lostpic.net/thumbs_images/f/2/e/f2ee6807ee4e1501086850d417602a41.png http//lostpic.net/thumbs_images/4/3/e/43eaf116ed0211fa7c94e1a2fb34.png http//lostpic.net/thumbs_images/e/7/2/e72c5b5f2cccca331c966d43c1753d11.png http//lostpic.net/thumbs_images/3/d/0/3d07de89977c9fe777853edfc3816b.png http//lostpic.net/thumbs_images/c/a/8/ca8e40d1bbfd2281d881dd0ea4bd6842.png http//lostpic.net/thumbs_images/3/b/d/3bd1298fdadd273aea07454e0c4d31c6.png http//lostpic.net/thumbs_images/2/c/e/2cede7c7d32e079776894dab85d6cf.png http//lostpic.net/thumbs_images/a/0/d/a0d7b28e867a1c5a50d1e11e406bb1e6.png

Ссылки для скачивания:

http//bt.hqclub.net/files/ok.png Торрент: Невозможное / Lo imposible / The Impossible (2012) BDRip 720p | US-Transfer

Лучшая онлайн игра!


Публикация материалов сайта на сторонних ресурсах возможна только в неизменном виде.


Обсудить релиз на форуме

Вас также может заинтересовать:


  • 4
 (Голосов: 7)


Распечатать новость на принтере Драма
Обновлено: 8.09.2013 - 13:52

КОММЕНТАРИИ

 №1. ru4lan

Статус: Кинокритик | Новостей: 0 | Комментариев: 2736
ru4lan хорошее кино. но размерчик я предпочитаю такой http://hqclub.net/category/drama/nevozmozhnoe_lo_imposible_the_impossible_2012_bdrip.html
~~~

5.09.2013 - 01:55   цитировать