Вас Приветствует Релиз-группа HQCLUB


Помощь ресурсу, очень ВАЖНО!!!



.


WELCOME
Добро пожаловать в наше интернет - сообщество!

Всех нас объединяет одна страсть - страсть к высококачественному кино. А это наш сайт. Ежедневно здесь мы публикуем десятки качественных, свежих, а порой и эксклюзивных релизов, которые Вы можете скачать совершенно бесплатно и без каких-либо регистраций. Посему рекомендуем Вам добавить HQClub себе в закладки, а также подписаться на нашу ленту новостей, чтобы всегда быть в курсе всех событий. Ну а если Вы такой же синий фил, как и мы, то милости просим на наш форум. И в заключение, попробуйте зарегистрироваться, ведь не так это и сложно и займет всего лишь пару минут! Вот увидите, Вам у нас понравится и Вы вольетесь в наш дружный коллектив! Ну а пока - осматривайтесь = )
Мы рады Вам !





Умница Уилл Хантинг / Good Will Hunting (1997) BDRip-AVC

Оформил: Elheym | 25 декабря 2014 - 05:38:35 | Комментариев: 1 | Обращений: 909 {bookmarks_news}

http//lostpic.net/orig_images/f/d/9/fd9204fb8da860844251f1d8047b5d24.jpg

Информация о фильме:
Название: Умница Уилл Хантинг
Оригинальное название: Good Will Hunting
Год выхода: 1997
Жанр: драма
Режиссер: Гас Ван Сент / Gus Van Sant
В ролях: Робин Уильямс, Мэтт Дэймон, Бен Аффлек, Стеллан Скарсгард, Минни Драйвер, Кейси Аффлек, Коул Хаузер, Джон Майтон, Рэйчел Маджоровски, Коллин МакКоли

О фильме: Уилл Хантинг - 20-летний вундеркинд из Бостона, который то и дело ввязывается в неприятные истории. И когда полиция арестовывает его за очередную драку, профессор математики берет его под свою опеку, но при одном условии: Уилл должен пройти курс психотерапии. Сеансы «перевоспитания», начавшиеся с недоверия, постепенно перерастают в дружбу между Уиллом и его наставником.

«Some people can never believe in themselves, until someone believes in them»



http//rating.kinopoisk.ru/539.gif http//tracker.0day.kiev.ua/imdb/imdb_tt0119217.gif

Релиз от - http//hqclub.net/images/hqclub.png
Автор рипа: Elheym

Выпущено: США, Be Gentlemen Limited Partnership, Lawrence Bender Productions, Miramax Films
Продолжительность: 02:06:33
Перевод : Профессиональный (двухголосый, закадровый), R5 West
Оригинальная аудиодорожка: английская
Субтитры: русские (полные: три вида, включая ненормативные), украинские (полные), английские (полные, полные SDH)
Главы: присутствуют, сохранены оригинальные (подписаны)

Дополнительные аудиодорожки:
+ Профессиональный (многоголосый, закадровый) Первый канал
+ Профессиональный (двухголосый, закадровый) VHS-Rip, Premier
+ Профессиональный (двухголосый, закадровый) R5 Copy, Premier
+ Авторский (одноголосый, закадровый) В. Назаров
+ Авторский (одноголосый, закадровый) Ю. Живов
+ Авторский (одноголосый, закадровый) М. Яроцкий
+ Профессиональный (многоголосый, закадровый) украинский |Інтер|

Файл:
Формат: MKV
Качество: BDRip-AVC (источник: http//i28.fastpic.ru/big/2011/1013/a8/a3d28e80c9544f4c572189fc892ea8.gif / Blu-ray Remux / 1080p)
Видео: 1152x624 (1.85:1), 23.976 fps, MPEG-4 AVC, ~4508 kbps avg, 0.262 bit/pixel
Аудио #1: 48 kHz, AC3 Dolby Digital, 3/2 (L,C,R,l,r) + LFE ch, ~448 kbps avg (DVO.R5.West)
Аудио #2: 48 kHz, AC3 Dolby Digital, 3/2 (L,C,R,l,r) + LFE ch, ~448 kbps avg (ENG)
Аудио #3: 48 kHz, AC3 Dolby Digital, 2/0 (L,R) ch, ~192 kbps avg (MVO.PERVYJ.KANAL) (отдельно)
Аудио #4: 48 kHz, AC3 Dolby Digital, 2/0 (L,R) ch, ~256 kbps avg (DVO.VHS-RIP.PREMIER) (отдельно)
Аудио #5: 48 kHz, AC3 Dolby Digital, 3/2 (L,C,R,l,r) + LFE ch, ~448 kbps avg (DVO.R5.COPY.PREMIER) (отдельно)
Аудио #6: 48 kHz, AC3 Dolby Digital, 3/2 (L,C,R,l,r) + LFE ch, ~448 kbps avg (AVO.NAZAROV) (отдельно)
Аудио #7: 48 kHz, AC3 Dolby Digital, 3/2 (L,C,R,l,r) + LFE ch, ~448 kbps avg (AVO.JIVOV) (отдельно)
Аудио #8: 48 kHz, AC3 Dolby Digital, 3/2 (L,C,R,l,r) + LFE ch, ~448 kbps avg (AVO.YAROTSKIJ) (отдельно)
Аудио #9: 48 kHz, AC3 Dolby Digital, 2/0 (L,R) ch, ~192 kbps avg (MVO.UKR.INTER) (отдельно)
Размер: 4.87 GB
Сэмпл: скачать

http//lostpic.net/thumbs_images/2/c/0/2c0e3d4391f5e1adff97e512416759.png http//lostpic.net/thumbs_images/3/6/7/36773cbdea180faadaa618c3a0408a9c.png http//lostpic.net/thumbs_images/0/1/4/0144ef1da35a205faf6c72f1342cfc80.png http//lostpic.net/thumbs_images/e/c/4/ec4cc6979f1cf6c9636d56f9a25aedac.png http//lostpic.net/thumbs_images/a/f/9/af9753ef20c269ccc2a189a2bfdad778.png http//lostpic.net/thumbs_images/6/0/f/60fc3dc6d884141e6bfe5a11aec8530c.png

"MediaInfo"

Уникальный идентификатор : 208973367176857712511742059787498083949 (0x9D36CE79924DEE23B361D8937A88D66D)
Полное имя : Good.Will.Hunting.1997.DUAL.BDRip-AVC.x264.AC3.-HQCLUB.mkv
Формат : Matroska
Версия формата : Version 2
Размер файла : 4,87 Гбайт
Продолжительность : 2 ч. 6 м.
Общий поток : 5514 Кбит/сек
Дата кодирования : UTC 2014-12-25 04:15:02
Программа кодирования : mkvmerge v5.2.0 ('I can't explain') built on Dec 18 2011 18:12:03
Библиотека кодирования : libebml v1.2.3 + libmatroska v1.3.0

Видео
Идентификатор : 1
Формат : AVC
Формат/Информация : Advanced Video Codec
Профиль формата : High@L4.1
Параметр CABAC формата : Да
Параметр ReFrames формата : 11 кадров
Идентификатор кодека : V_MPEG4/ISO/AVC
Продолжительность : 2 ч. 6 м.
Битрейт : 4508 Кбит/сек
Ширина : 1152 пикселя
Высота : 624 пикселя
Соотношение сторон : 1,85:1
Режим частоты кадров : Постоянный
Частота кадров : 23,976 кадра/сек
Цветовое пространство : YUV
Субдискретизация насыщенности : 4:2:0
Битовая глубина : 8 бит
Тип развёртки : Прогрессивная
Бит/(Пиксели*Кадры) : 0.262
Размер потока : 3,99 Гбайт (82%)
Заголовок : Умница Уилл Хантинг / Good Will Hunting (1997) BDRip-AVC by HQCLUB [Elheym]
Библиотека кодирования : x264 core 142 r2491kMod 24e4fed
Настройки программы : cabac=1 / ref=11 / deblock=1:0:0 / analyse=0x3:0x133 / me=umh / subme=11 / psy=1 / fade_compensate=0.00 / psy_rd=1.08:0.00 / mixed_ref=1 / me_range=32 / chroma_me=1 / trellis=2 / 8x8dct=1 / cqm=0 / deadzone=21,11 / fast_pskip=0 / chroma_qp_offset=-4 / threads=6 / lookahead_threads=1 / sliced_threads=0 / nr=0 / decimate=1 / interlaced=0 / bluray_compat=0 / constrained_intra=0 / fgo=0 / bframes=14 / b_pyramid=2 / b_adapt=2 / b_bias=0 / direct=1 / weightb=1 / open_gop=0 / weightp=2 / keyint=230 / keyint_min=23 / scenecut=40 / intra_refresh=0 / rc_lookahead=40 / rc=crf / mbtree=0 / crf=20.3000 / qcomp=0.70 / qpmin=0 / qpmax=69 / qpstep=4 / vbv_maxrate=50000 / vbv_bufsize=62500 / crf_max=0.0 / nal_hrd=none / filler=0 / ip_ratio=1.40 / pb_ratio=1.30 / aq=2:0.90 /
Язык : English
Default : Да
Forced : Нет

Аудио #1
Идентификатор : 2
Формат : AC-3
Формат/Информация : Audio Coding 3
Расширение режима : CM (complete main)
Параметр Endianness формата : Big
Идентификатор кодека : A_AC3
Продолжительность : 2 ч. 6 м.
Вид битрейта : Постоянный
Битрейт : 448 Кбит/сек
Каналы : 6 каналов
Расположение каналов : Front: L C R, Side: L R, LFE
Частота : 48,0 КГц
Битовая глубина : 16 бит
Метод сжатия : С потерями
Размер потока : 406 Мбайт (8%)
Заголовок : АС3 5.1 @ 448 kbps - DVO R5, West
Язык : Russian
Default : Нет
Forced : Нет

Аудио #2
Идентификатор : 3
Формат : AC-3
Формат/Информация : Audio Coding 3
Расширение режима : CM (complete main)
Параметр Endianness формата : Big
Идентификатор кодека : A_AC3
Продолжительность : 2 ч. 6 м.
Вид битрейта : Постоянный
Битрейт : 448 Кбит/сек
Каналы : 6 каналов
Расположение каналов : Front: L C R, Side: L R, LFE
Частота : 48,0 КГц
Битовая глубина : 16 бит
Метод сжатия : С потерями
Размер потока : 406 Мбайт (8%)
Заголовок : АС3 5.1 @ 448 kbps - Original
Язык : English
Default : Нет
Forced : Нет

Текст #1
Идентификатор : 4
Формат : UTF-8
Идентификатор кодека : S_TEXT/UTF8
Идентификатор кодека/Информация : UTF-8 Plain Text
Заголовок : Full, R5
Язык : Russian
Default : Нет
Forced : Нет

Текст #2
Идентификатор : 5
Формат : UTF-8
Идентификатор кодека : S_TEXT/UTF8
Идентификатор кодека/Информация : UTF-8 Plain Text
Заголовок : Full by Uncle KiLler [Uncensored]
Язык : Russian
Default : Нет
Forced : Нет

Текст #3
Идентификатор : 6
Формат : UTF-8
Идентификатор кодека : S_TEXT/UTF8
Идентификатор кодека/Информация : UTF-8 Plain Text
Заголовок : Full
Язык : Russian
Default : Нет
Forced : Нет

Текст #4
Идентификатор : 7
Формат : UTF-8
Идентификатор кодека : S_TEXT/UTF8
Идентификатор кодека/Информация : UTF-8 Plain Text
Заголовок : Full, R5
Язык : Ukrainian
Default : Нет
Forced : Нет

Текст #5
Идентификатор : 8
Формат : UTF-8
Идентификатор кодека : S_TEXT/UTF8
Идентификатор кодека/Информация : UTF-8 Plain Text
Заголовок : Full
Язык : English
Default : Нет
Forced : Нет

Текст #6
Идентификатор : 9
Формат : UTF-8
Идентификатор кодека : S_TEXT/UTF8
Идентификатор кодека/Информация : UTF-8 Plain Text
Заголовок : Full SDH
Язык : English
Default : Нет
Forced : Нет

Меню
00:00:00.000 : :Who Proved the Theorem?
00:09:43.499 : :Cruisin' for a Bruisin'
00:15:46.403 : :Fun at the Harvard Bar
00:28:43.388 : :Nightmare for Therapists
00:37:14.982 : :Session with Sean
00:52:44.411 : :First to Talk
00:59:01.329 : :A Visit to the Dorm
01:03:04.572 : :When did you Know?
01:08:22.348 : :Meeting the Guys
01:14:25.042 : :A Difference of Opinion
01:17:54.878 : :A Retainer, Please
01:22:44.584 : :Take Back
01:43:49.805 : :Different Perspectives
01:52:34.706 : :Last Session
01:54:44.836 : :Birthday Present
01:58:18.049 : :Leaving

"x264 log"

x264 [info]: frame I:1246 Avg QP:19.56 size: 98847
x264 [info]: frame P:31538 Avg QP:20.75 size: 44257
x264 [info]: frame B:149276 Avg QP:22.55 size: 19167

x264 [info]: consecutive B-frames: 1.1% 1.2% 3.1% 6.0% 11.0% 54.6% 5.8% 2.4% 3.9% 3.4% 2.8% 2.7% 1.0% 0.7% 0.4%

x264 [info]: ref P L0: 40.2% 11.2% 18.8% 7.0% 6.4% 4.3% 4.2% 2.1% 2.1% 1.6% 1.8% 0.2% 0.0%
x264 [info]: ref B L0: 64.3% 13.9% 7.8% 4.2% 3.1% 2.6% 2.0% 1.3% 0.7% 0.3%
x264 [info]: ref B L1: 90.1% 9.9%


Ссылки для скачивания:

http//bt.hqclub.net/files/ok.png Торрент: Умница Уилл Хантинг / Good Will Hunting (1997) BDRip-AVC

Лучшая онлайн игра!


Публикация материалов сайта на сторонних ресурсах возможна только в неизменном виде.


Обсудить релиз на форуме

Вас также может заинтересовать:


  • 5
 (Голосов: 4)


Распечатать новость на принтере Драма
Обновлено: 25.12.2014 - 21:50

КОММЕНТАРИИ

 №1. ru4lan

Статус: Кинокритик | Новостей: 0 | Комментариев: 2736
ru4lan спасибо за хороший фильм
~~~

25.12.2014 - 14:12   цитировать