Вас Приветствует Релиз-группа HQCLUB


Помощь ресурсу, очень ВАЖНО!!!



.


WELCOME
Добро пожаловать в наше интернет - сообщество!

Всех нас объединяет одна страсть - страсть к высококачественному кино. А это наш сайт. Ежедневно здесь мы публикуем десятки качественных, свежих, а порой и эксклюзивных релизов, которые Вы можете скачать совершенно бесплатно и без каких-либо регистраций. Посему рекомендуем Вам добавить HQClub себе в закладки, а также подписаться на нашу ленту новостей, чтобы всегда быть в курсе всех событий. Ну а если Вы такой же синий фил, как и мы, то милости просим на наш форум. И в заключение, попробуйте зарегистрироваться, ведь не так это и сложно и займет всего лишь пару минут! Вот увидите, Вам у нас понравится и Вы вольетесь в наш дружный коллектив! Ну а пока - осматривайтесь = )
Мы рады Вам !





Великолепный / Потрясающий / Мажестик / The Majestic (2001) BDRip-AVC

Оформил: Elheym | 29 января 2015 - 22:27:07 | Комментариев: 2 | Обращений: 795 {bookmarks_news}

http//lostpic.net/orig_images/0/1/0/0104b737c99247b016b1f2a3f821b3.jpg

Информация о фильме:
Название: Великолепный
Оригинальное название: The Majestic
Год выхода: 2001
Жанр: драма
Режиссер: Фрэнк Дарабонт / Frank Darabont
В ролях: Джим Керри, Лори Холден, Мартин Ландау, Хэл Холбрук, Джеффри ДеМанн, Боб Бэлабан, Брент Бриско, Рон Рифкин, Джерри Блэк, Дэвид Огден Стайерз

О фильме: История о человеке, ищущем самого себя. Питер, голливудский сценарист, случайно попадает в маленький городок Лоусон в Калифорнии: после автомобильной аварии он полностью теряет память.

Его принимают за пропавшего без вести героя Второй мировой. Питер, который сам поверил в это, берется за восстановление заброшенного городского кинотеатра. Невеста героя, которая ждала его несколько лет, также не замечает, что рядом с ней — двойник. Прекрасная жизнь основана на прекрасном обмане. Но правда, рано или поздно, откроется…

«Sometimes your life comes into focus one frame at a time»



http//rating.kinopoisk.ru/746.gif http//tracker.0day.kiev.ua/imdb/imdb_tt0268995.gif

Релиз от - http//hqclub.net/images/hqclub.png
Автор рипа: Elheym

Выпущено: США, Австралия, Castle Rock Entertainment, Darkwoods Productions, NPV Entertainment, Village Roadshow Pictures
Продолжительность: 02:32:44
Перевод 1: Профессиональный (полное дублирование) BD EUR
Перевод 2: Профессиональный (многоголосый, закадровый) ВГТРК / ТК "Россия"
Перевод 3: Профессиональный (двухголосый, закадровый) Сергей Визгунов и Нина
Перевод 4: Авторский (одноголосый, закадровый) Сергей Визгунов
Оригинальная аудиодорожка: английская
Субтитры: русские (полные), украинские (полные), английские (полные, полные SDH, полные SDH цветные)
Главы: присутствуют, сохранены оригинальные

Дополнительные аудиодорожки:
+ Профессиональный (двухголосый, закадровый) Сергей Визгунов и Нина
+ Авторский (одноголосый, закадровый) Сергей Визгунов
+ Профессиональный (двухголосый, закадровый) украинский |ТакТреба Продакшн|

Файл:
Формат: MKV
Качество: BDRip-AVC (источник: http//lostpic.net/images/20a38122bcc5994b3cdae6e4b4b0.png / Blu-ray EUR / 1080p)
Видео: 1152x480 (16:9), 23.976 fps, MPEG-4 AVC, ~4078 kbps avg, 0.228 bit/pixel
Аудио #1: 48 kHz, AC3 Dolby Digital, 3/2 (L,C,R,l,r) + LFE ch, ~448 kbps avg (DUB)
Аудио #2: 48 kHz, AC3 Dolby Digital, 2/0 (L,R), ~192 kbps avg (MVO.TK-ROSSIJA)
Аудио #3: 48 kHz, AC3 Dolby Digital, 3/2 (L,C,R,l,r) + LFE ch, ~448 kbps avg (ENG)
Аудио #4: 48 kHz, AC3 Dolby Digital, 2/0 (L,R), ~192 kbps avg (DVO.VIZGUNOV.&.NINA) (отдельно)
Аудио #5: 48 kHz, AC3 Dolby Digital, 2/0 (L,R), ~224 kbps avg (AVO.VIZGUNOV) (отдельно)
Аудио #6: 48 kHz, AC3 Dolby Digital, 3/2 (L,C,R,l,r) + LFE ch, ~384 kbps avg (UKR.DVO) (отдельно)
Размер: 5.62 GB
Сэмпл: скачать

http//lostpic.net/thumbs_images/c/e/4/ce444646d12d1ac836d18dabc5268b05.png http//lostpic.net/thumbs_images/9/4/9/9ebdf65112976151d1708fb844.png http//lostpic.net/thumbs_images/d/d/2/dd28a71ad7bfa443ca51b2222a1e3521.png http//lostpic.net/thumbs_images/3/5/9/359ecb8a239c8d047563885b3797db80.png http//lostpic.net/thumbs_images/1/1/f/11fdd780b1d3fd873fab706b8f25ba6d.png http//lostpic.net/thumbs_images/c/5/b/c5bac3a8b454b8364b6b7eb9474b40.png

"MediaInfo"

Уникальный идентификатор : 253773551996678778193294626771672496144 (0xBEEB021F30225F01959067C56D7FF810)
Полное имя : The.Majestic.2001.TRIPLE.BDRip-AVC.x264.AC3.-HQCLUB.mkv
Формат : Matroska
Версия формата : Version 2
Размер файла : 5,62 Гбайт
Продолжительность : 2 ч. 32 м.
Общий поток : 5271 Кбит/сек
Дата кодирования : UTC 2015-01-29 17:42:33
Программа кодирования : mkvmerge v5.2.0 ('I can't explain') built on Dec 18 2011 18:12:03
Библиотека кодирования : libebml v1.2.3 + libmatroska v1.3.0
Attachements : Cover.jpg

Видео
Идентификатор : 1
Формат : AVC
Формат/Информация : Advanced Video Codec
Профиль формата : High@L4.1
Параметр CABAC формата : Да
Параметр ReFrames формата : 11 кадров
Идентификатор кодека : V_MPEG4/ISO/AVC
Продолжительность : 2 ч. 32 м.
Битрейт : 4078 Кбит/сек
Ширина : 1152 пикселя
Высота : 648 пикселей
Соотношение сторон : 16:9
Режим частоты кадров : Постоянный
Частота кадров : 23,976 кадра/сек
Цветовое пространство : YUV
Субдискретизация насыщенности : 4:2:0
Битовая глубина : 8 бит
Тип развёртки : Прогрессивная
Бит/(Пиксели*Кадры) : 0.228
Размер потока : 4,35 Гбайт (77%)
Заголовок : Великолепный / Потрясающий / Мажестик / The Majestic (2001) BDRip-AVC by HQCLUB [Elheym]
Библиотека кодирования : x264 core 144 r2525kMod 40bb568
Настройки программы : cabac=1 / ref=11 / deblock=1:-3:-2 / analyse=0x3:0x133 / me=umh / subme=11 / psy=1 / fade_compensate=0.00 / psy_rd=1.00:0.00 / mixed_ref=1 / me_range=32 / chroma_me=1 / trellis=2 / 8x8dct=1 / cqm=0 / deadzone=21,11 / fast_pskip=0 / chroma_qp_offset=-4 / threads=6 / lookahead_threads=1 / sliced_threads=0 / nr=0 / decimate=0 / interlaced=0 / bluray_compat=0 / constrained_intra=0 / fgo=0 / bframes=13 / b_pyramid=2 / b_adapt=2 / b_bias=0 / direct=1 / weightb=1 / open_gop=0 / weightp=2 / keyint=230 / keyint_min=23 / scenecut=40 / intra_refresh=0 / rc_lookahead=40 / rc=crf / mbtree=0 / crf=19.4000 / qcomp=0.80 / qpmin=0 / qpmax=69 / qpstep=4 / vbv_maxrate=50000 / vbv_bufsize=62500 / crf_max=0.0 / nal_hrd=none / filler=0 / ip_ratio=1.40 / pb_ratio=1.30 / aq=1:0.90
Язык : English
Default : Да
Forced : Нет

Аудио #1
Идентификатор : 2
Формат : AC-3
Формат/Информация : Audio Coding 3
Расширение режима : CM (complete main)
Параметр Endianness формата : Big
Идентификатор кодека : A_AC3
Продолжительность : 2 ч. 32 м.
Вид битрейта : Постоянный
Битрейт : 448 Кбит/сек
Каналы : 6 каналов
Расположение каналов : Front: L C R, Side: L R, LFE
Частота : 48,0 КГц
Битовая глубина : 16 бит
Метод сжатия : С потерями
Размер потока : 489 Мбайт (8%)
Заголовок : АС3 5.1 @ 448 kbps - Dub, BD EUR
Язык : Russian
Default : Нет
Forced : Нет

Аудио #2
Идентификатор : 3
Формат : AC-3
Формат/Информация : Audio Coding 3
Расширение режима : CM (complete main)
Параметр Endianness формата : Big
Идентификатор кодека : A_AC3
Продолжительность : 2 ч. 32 м.
Вид битрейта : Постоянный
Битрейт : 192 Кбит/сек
Каналы : 2 канала
Расположение каналов : Front: L R
Частота : 48,0 КГц
Битовая глубина : 16 бит
Метод сжатия : С потерями
Размер потока : 210 Мбайт (4%)
Заголовок : АС3 2.0 @ 192 kbps - MVO, TK "Rossija"
Язык : Russian
Default : Нет
Forced : Нет

Аудио #3
Идентификатор : 4
Формат : AC-3
Формат/Информация : Audio Coding 3
Расширение режима : CM (complete main)
Параметр Endianness формата : Big
Идентификатор кодека : A_AC3
Продолжительность : 2 ч. 32 м.
Вид битрейта : Постоянный
Битрейт : 448 Кбит/сек
Каналы : 6 каналов
Расположение каналов : Front: L C R, Side: L R, LFE
Частота : 48,0 КГц
Битовая глубина : 16 бит
Метод сжатия : С потерями
Размер потока : 489 Мбайт (8%)
Заголовок : АС3 5.1 @ 448 kbps - Original
Язык : English
Default : Нет
Forced : Нет

Текст #1
Идентификатор : 5
Формат : UTF-8
Идентификатор кодека : S_TEXT/UTF8
Идентификатор кодека/Информация : UTF-8 Plain Text
Заголовок : Full
Язык : Russian
Default : Нет
Forced : Нет

Текст #2
Идентификатор : 6
Формат : UTF-8
Идентификатор кодека : S_TEXT/UTF8
Идентификатор кодека/Информация : UTF-8 Plain Text
Заголовок : Full
Язык : Ukrainian
Default : Нет
Forced : Нет

Текст #3
Идентификатор : 7
Формат : UTF-8
Идентификатор кодека : S_TEXT/UTF8
Идентификатор кодека/Информация : UTF-8 Plain Text
Заголовок : Full
Язык : English
Default : Нет
Forced : Нет

Текст #4
Идентификатор : 8
Формат : UTF-8
Идентификатор кодека : S_TEXT/UTF8
Идентификатор кодека/Информация : UTF-8 Plain Text
Заголовок : Full SDH
Язык : English
Default : Нет
Forced : Нет

Текст #5
Идентификатор : 9
Формат : UTF-8
Идентификатор кодека : S_TEXT/UTF8
Идентификатор кодека/Информация : UTF-8 Plain Text
Заголовок : Full SDH Colored
Язык : English
Default : Нет
Forced : Нет

Меню
00:00:00.000 : :Chapter 01
00:05:06.347 : :Chapter 02
00:07:40.543 : :Chapter 03
00:10:38.554 : :Chapter 04
00:13:35.606 : :Chapter 05
00:18:13.091 : :Chapter 06
00:24:09.656 : :Chapter 07
00:28:19.948 : :Chapter 08
00:34:08.337 : :Chapter 09
00:38:00.319 : :Chapter 10
00:41:30.446 : :Chapter 11
00:46:29.244 : :Chapter 12
00:49:46.692 : :Chapter 13
00:54:24.427 : :Chapter 14
00:59:01.537 : :Chapter 15
01:03:57.917 : :Chapter 16
01:07:29.628 : :Chapter 17
01:12:11.118 : :Chapter 18
01:15:30.526 : :Chapter 19
01:18:08.100 : :Chapter 20
01:24:06.958 : :Chapter 21
01:26:23.761 : :Chapter 22
01:30:17.537 : :Chapter 23
01:32:52.858 : :Chapter 24
01:36:12.183 : :Chapter 25
01:42:54.126 : :Chapter 26
01:46:50.654 : :Chapter 27
01:50:11.646 : :Chapter 28
01:53:07.530 : :Chapter 29
01:55:54.197 : :Chapter 30
01:59:42.091 : :Chapter 31
02:03:13.761 : :Chapter 32
02:07:04.992 : :Chapter 33
02:17:10.889 : :Chapter 34
02:20:20.161 : :Chapter 35
02:21:56.925 : :Chapter 36
02:27:34.262 : :Chapter 37
02:32:43.904 : :Chapter 38

"x264 log"

x264 [info]: frame I:1604 Avg QP:17.22 size: 92328
x264 [info]: frame P:39742 Avg QP:19.01 size: 45342
x264 [info]: frame B:178374 Avg QP:21.18 size: 15914

x264 [info]: consecutive B-frames: 1.2% 0.8% 2.6% 14.4% 16.1% 35.6% 10.3% 11.9% 3.0% 0.9% 0.9% 1.9% 0.4% 0.3%

x264 [info]: ref P L0: 38.9% 9.1% 19.5% 7.2% 6.9% 4.6% 4.7% 2.3% 2.5% 1.9% 2.2% 0.2% 0.0%
x264 [info]: ref B L0: 68.3% 12.7% 6.4% 3.7% 2.6% 2.3% 1.8% 1.2% 0.7% 0.3%
x264 [info]: ref B L1: 92.4% 7.6%


Цитата:
За исходный диск спасибо - hgking.
За перевод ВГТРК / ТК "Россия" большое спасибо small_pipi, Nekontroliruemij_devil за перевод Сергея Визгунова и Нины и Glanz за перевод Сергея Визгунова
Синхронизация переводов - akchurin.a2011
За украинскую звуковую дорожку и субтитры спасибо сайту hurtom. Дорожку синхронизировал Elheym.


Ссылки для скачивания:

http//bt.hqclub.net/files/ok.png Торрент: Великолепный / Потрясающий / Мажестик / The Majestic (2001) BDRip-AVC

Лучшая онлайн игра!


Публикация материалов сайта на сторонних ресурсах возможна только в неизменном виде.


Обсудить релиз на форуме

Вас также может заинтересовать:


  • 1
 (Голосов: 1)


Распечатать новость на принтере Драма
Обновлено: 30.01.2015 - 23:43

КОММЕНТАРИИ

 №1. ru4lan

Статус: Кинокритик | Новостей: 0 | Комментариев: 2736
ru4lan толстоват файл для меня
~~~

30.01.2015 - 00:33   цитировать  

 №2. alex201

Статус: Новичок | Новостей: 0 | Комментариев: 26
ВЫ СМОТРИТЕ РЕКЛАМУ И ВАМ ЗА ЭТО ПЛАТЯТ!
СПРАВИТСЯ ДАЖЕ ШКОЛЬНИК!
Цитата:
Видео урок: http://youtu.be/fJEuC9rl89o
Ссылка на сам сайт: http://goo.gl/OnkqGq

~~~

6.02.2015 - 01:37   цитировать