Вас Приветствует Релиз-группа HQCLUB


Помощь ресурсу, очень ВАЖНО!!!



.


WELCOME
Добро пожаловать в наше интернет - сообщество!

Всех нас объединяет одна страсть - страсть к высококачественному кино. А это наш сайт. Ежедневно здесь мы публикуем десятки качественных, свежих, а порой и эксклюзивных релизов, которые Вы можете скачать совершенно бесплатно и без каких-либо регистраций. Посему рекомендуем Вам добавить HQClub себе в закладки, а также подписаться на нашу ленту новостей, чтобы всегда быть в курсе всех событий. Ну а если Вы такой же синий фил, как и мы, то милости просим на наш форум. И в заключение, попробуйте зарегистрироваться, ведь не так это и сложно и займет всего лишь пару минут! Вот увидите, Вам у нас понравится и Вы вольетесь в наш дружный коллектив! Ну а пока - осматривайтесь = )
Мы рады Вам !





Подарок с характером (2014) BDRip-AVC

Оформил: Elheym | 11 августа 2014 - 20:34:40 | Комментариев: 1 | Обращений: 622 {bookmarks_news}

http//lostpic.net/orig_images/a/b/0/ab0b06382e9738998cbc9a652383ed89.png

Информация о фильме:
Название: Подарок с характером
Год выхода: 2014
Жанр: семейный, приключения, комедия
Режиссер: Карен Оганесян
В ролях: Михаил Галустян, Артем Фадеев, Фёдор Бондарчук, Екатерина Климова, Николай Валуев, Ирина Безрукова, Катерина Шпица, Алексей Макаров, Константин Юшкевич, Инга Стрелкова-Оболдина, Александр Половцев, Вячеслав Гришечкин

О фильме: Быть пандой весело! Но не Мише, который вынужден работать в костюме панды на детских праздниках. Ему тридцать лет, он живет в крохотной однушке на окраине Москвы, и у него нет серьезной работы. Все было так, пока его не позвали на день рождения к сыну олигарха. Артему девять лет, и у него есть тайный план, помочь осуществить который может только Миша. Мальчик и панда отправляются в путешествие через всю страну, то и дело вляпываясь в невероятные ситуации.

http//rating.kinopoisk.ru/771230.gif

Релиз от - http//hqclub.net/images/hqclub.png
Автор рипа: Elheym

Выпущено: Россия, Fresh Films
Продолжительность: 01:28:13
Субтитры: нет
Главы: присутствуют, сохранены оригинальные

Файл:
Формат: MKV
Качество: BDRip-AVC (источник: http//i28.fastpic.ru/big/2011/1013/a8/a3d28e80c9544f4c572189fc892ea8.gif / Blu-ray Disc / 1080p)
Видео: 1024x552 (1.855:1), 24 fps, MPEG-4 AVC, ~2960 kbps avg, 0.218 bit/pixel
Аудио: 48 kHz, AC3 Dolby Digital, 3/2 (L,C,R,l,r) + LFE ch, ~448 kbps
Размер: 2.09 GB
Сэмпл: скачать

http//lostpic.net/thumbs_images/b/c/5/bc522ea6fe37c5500f01d654366982.png http//lostpic.net/thumbs_images/6/e/5/6e58cffce23a78a87b941e876cdc65fc.png http//lostpic.net/thumbs_images/4/5/4/454044c360dd88503f55eec4ba1100e4.png http//lostpic.net/thumbs_images/6/3/4/634a71dd1bba31a700dee93944b4598b.png http//lostpic.net/thumbs_images/c/d/6/cd64f411fcb3e6ae67d511e65aab3360.png http//lostpic.net/thumbs_images/1/d/4/1d4016103d413e0a6ef7fdd5880bb7cc.png

"MediaInfo"

Уникальный идентификатор : 235487014426498721564381377035220826457 (0xB1292635E47AE0A887441C9C20C43959)
Полное имя : Podarok.s.harakterom.2014.RUS.BDRip-AVC.x264.AC3.-HQCLUB.mkv
Формат : Matroska
Версия формата : Version 2
Размер файла : 2,10 Гбайт
Продолжительность : 1 ч. 28 м.
Общий поток : 3408 Кбит/сек
Дата кодирования : UTC 2014-08-11 15:49:14
Программа кодирования : mkvmerge v5.2.0 ('I can't explain') built on Dec 18 2011 18:12:03
Библиотека кодирования : libebml v1.2.3 + libmatroska v1.3.0

Видео
Идентификатор : 1
Формат : AVC
Формат/Информация : Advanced Video Codec
Профиль формата : High@L4.1
Параметр CABAC формата : Да
Параметр ReFrames формата : 14 кадров
Идентификатор кодека : V_MPEG4/ISO/AVC
Продолжительность : 1 ч. 28 м.
Битрейт : 2960 Кбит/сек
Ширина : 1024 пикселя
Высота : 552 пикселя
Соотношение сторон : 1,85:1
Режим частоты кадров : Постоянный
Частота кадров : 24,000 кадра/сек
Цветовое пространство : YUV
Субдискретизация насыщенности : 4:2:0
Битовая глубина : 8 бит
Тип развёртки : Прогрессивная
Бит/(Пиксели*Кадры) : 0.218
Размер потока : 1,78 Гбайт (85%)
Заголовок : Подарок с характером (2014) BDRip-AVC by HQCLUB [Elheym]
Библиотека кодирования : x264 core 142 r2453 ea0ca51
Настройки программы : cabac=1 / ref=14 / deblock=1:-3:-2 / analyse=0x3:0x113 / me=umh / subme=11 / psy=1 / psy_rd=1.00:0.00 / mixed_ref=1 / me_range=32 / chroma_me=1 / trellis=2 / 8x8dct=1 / cqm=0 / deadzone=21,11 / fast_pskip=1 / chroma_qp_offset=-4 / threads=6 / lookahead_threads=1 / sliced_threads=0 / nr=0 / decimate=1 / interlaced=0 / bluray_compat=0 / constrained_intra=0 / bframes=8 / b_pyramid=2 / b_adapt=2 / b_bias=0 / direct=3 / weightb=1 / open_gop=0 / weightp=2 / keyint=240 / keyint_min=24 / scenecut=40 / intra_refresh=0 / rc_lookahead=40 / rc=2pass / mbtree=1 / bitrate=2960 / ratetol=1.0 / qcomp=0.60 / qpmin=10 / qpmax=69 / qpstep=4 / cplxblur=20.0 / qblur=0.5 / vbv_maxrate=50000 / vbv_bufsize=62500 / nal_hrd=none / filler=0 / ip_ratio=1.40 / aq=1:0.90
Язык : Russian
Default : Да
Forced : Нет

Аудио
Идентификатор : 2
Формат : AC-3
Формат/Информация : Audio Coding 3
Расширение режима : CM (complete main)
Параметр Endianness формата : Big
Идентификатор кодека : A_AC3
Продолжительность : 1 ч. 28 м.
Вид битрейта : Постоянный
Битрейт : 448 Кбит/сек
Каналы : 6 каналов
Расположение каналов : Front: L C R, Side: L R, LFE
Частота : 48,0 КГц
Битовая глубина : 16 бит
Метод сжатия : С потерями
Размер потока : 283 Мбайт (13%)
Заголовок : АС3, 5.1 @ ~448 kbps - Original
Язык : Russian
Default : Нет
Forced : Нет

Меню
00:00:00.000 : :Chapter 01
00:10:30.750 : :Chapter 02
00:22:23.875 : :Chapter 03
00:30:28.083 : :Chapter 04
00:45:20.541 : :Chapter 05
00:52:54.291 : :Chapter 06
01:05:06.500 : :Chapter 07
01:13:26.083 : :Chapter 08

"x264 log"

x264 [info]: frame I:1565 Avg QP:15.20 size:103141
x264 [info]: frame P:33256 Avg QP:18.10 size: 31960
x264 [info]: frame B:92217 Avg QP:22.21 size: 7952

x264 [info]: consecutive B-frames: 4.3% 5.1% 12.9% 34.3% 17.8% 21.1% 2.6% 0.8% 1.0%

x264 [info]: ref P L0: 50.8% 12.3% 13.5% 5.8% 3.9% 3.4% 2.5% 1.7% 1.3% 1.2% 0.9% 0.9% 0.8% 0.8% 0.2% 0.0%
x264 [info]: ref B L0: 79.9% 8.3% 4.1% 1.9% 1.4% 1.2% 1.0% 0.6% 0.6% 0.4% 0.3% 0.2% 0.1%
x264 [info]: ref B L1: 93.9% 6.1%


Ссылки для скачивания:

http//bt.hqclub.net/files/ok.png Торрент: Подарок с характером (2014) BDRip-AVC

Лучшая онлайн игра!


Публикация материалов сайта на сторонних ресурсах возможна только в неизменном виде.


Обсудить релиз на форуме

Вас также может заинтересовать:


  • 5
 (Голосов: 2)


Распечатать новость на принтере Семейный, Приключения, Комедия

КОММЕНТАРИИ

 №1. ru4lan

Статус: Кинокритик | Новостей: 0 | Комментариев: 2736
ru4lan в чем отличие от этой версии http://hqclub.net/category/family-adventure-comedy/podarok_s_harakterom_2014_bdrip-avc1.html[/u rl]
[url=http://l2place.ru/]~~~

20.09.2014 - 14:05   цитировать