Вас Приветствует Релиз-группа HQCLUB


Помощь ресурсу, очень ВАЖНО!!!



.


WELCOME
Добро пожаловать в наше интернет - сообщество!

Всех нас объединяет одна страсть - страсть к высококачественному кино. А это наш сайт. Ежедневно здесь мы публикуем десятки качественных, свежих, а порой и эксклюзивных релизов, которые Вы можете скачать совершенно бесплатно и без каких-либо регистраций. Посему рекомендуем Вам добавить HQClub себе в закладки, а также подписаться на нашу ленту новостей, чтобы всегда быть в курсе всех событий. Ну а если Вы такой же синий фил, как и мы, то милости просим на наш форум. И в заключение, попробуйте зарегистрироваться, ведь не так это и сложно и займет всего лишь пару минут! Вот увидите, Вам у нас понравится и Вы вольетесь в наш дружный коллектив! Ну а пока - осматривайтесь = )
Мы рады Вам !





Прогулки с динозаврами / Walking with Dinosaurs (2013) BDRip-AVC

Оформил: Elheym | 30 января 2015 - 20:51:17 | Комментариев: 2 | Обращений: 759 {bookmarks_news}

http//img1.lostpic.net/orig_images/7/7/e/77ed12fc8621f153d55e868ef732aa92.jpg

Информация о фильме:
Название: Прогулки с динозаврами
Оригинальное название: Walking with Dinosaurs
Год выхода: 2013
Жанр: семейный
Режиссер: Бэрри Кук / Barry Cook, Нил Найтингейл / Neil Nightingale
В ролях: Чарли Роу, Карл Урбан, Ангури Райс, Джон Легуизамо, Джастин Лонг, Скайлер Стоун, Тия Сиркар, Клэй Сэвадж, Джуд Тинсели, Мэри Мэтилин Маусер

О фильме: «Прогулки с динозаврами» — это увлекательное путешествие с полным погружением в 3D-реальность, созданную по инновационной технологии CGI. Мы увидим, как выглядели динозавры, как они жили и с какими опасностями им пришлось столкнуться. Главный герой истории — храбрый динозаврик Патчи, он самый маленький в семье, но именно ему предстоит стать лидером и спасти своих сородичей.

«Величайшее приключение за 70 миллионов лет»



http//rating.kinopoisk.ru/2290.gif http//tracker.0day.kiev.ua/imdb/imdb_tt1762399.gif

Релиз от - http//hqclub.net/images/hqclub.png
Автор рипа: Elheym

Выпущено: США, Великобритания, Австралия, Индия, Animal Logic, BBC Earth, BBC Earth MD (WWD), BBC Worldwide, Evergreen Films, Evergreen MD, Reliance Big Entertainment
Продолжительность: 01:27:30
Перевод : Профессиональный (полное дублирование) BD EUR
Оригинальная аудиодорожка: английская
Субтитры: русские (полные), украинские (полные), английские (полные, полные SDH, полные SDH цветные)
Главы: присутствуют, сохранены оригинальные

Дополнительные аудиодорожки:
+ Профессиональный (полное дублирование) украинский

Файл:
Формат: MKV
Качество: BDRip-AVC (источник: http//i28.fastpic.ru/big/2011/1013/a8/a3d28e80c9544f4c572189fc892ea8.gif / Blu-ray EUR / 1080p)
Видео: 1148x480 (2.40:1), 23.976 fps, MPEG-4 AVC, ~4245 kbps avg, 0.321 bit/pixel
Аудио #1: 48 kHz, AC3 Dolby Digital, 3/2 (L,C,R,l,r) + LFE ch, ~448 kbps avg (DUB)
Аудио #2: 48 kHz, AC3 Dolby Digital, 3/2 (L,C,R,l,r) + LFE ch, ~448 kbps avg (ENG)
Аудио #3: 48 kHz, AC3 Dolby Digital, 3/2 (L,C,R,l,r) + LFE ch, ~448 kbps avg (UKR) (отдельно)
Размер: 3.20 GB
Сэмпл: скачать

http//lostpic.net/thumbs_images/7/1/4/714a809945e8b4070f9519b7b0cee4.png http//lostpic.net/thumbs_images/0/2/e/02e83817d009d50e4a463fde0acfed.png http//lostpic.net/thumbs_images/1/d/5/1d55d37dcc6a26970dd3da2e5ed3cf.png http//lostpic.net/thumbs_images/0/1/4/01459181e5e4f0b87c6404f2241f8de8.png http//lostpic.net/thumbs_images/f/2/e/f2e937a2c87c9250fb5f0412931110a0.png http//lostpic.net/thumbs_images/3/9/9/39971ec0a53062cb1cf3e970a80584.png

"MediaInfo"

Уникальный идентификатор : 234164834107120963952944319686607112365 (0xB02A81B013226D1F9B6D7630526008AD)
Полное имя : Walking.with.Dinosaurs.2013.DUAL.BDRip-AVC.x264.AC3.-HQCLUB.mkv
Формат : Matroska
Версия формата : Version 2
Размер файла : 3,21 Гбайт
Продолжительность : 1 ч. 27 м.
Общий поток : 5245 Кбит/сек
Дата кодирования : UTC 2015-01-30 17:21:52
Программа кодирования : mkvmerge v5.2.0 ('I can't explain') built on Dec 18 2011 18:12:03
Библиотека кодирования : libebml v1.2.3 + libmatroska v1.3.0
Attachements : Cover.jpg

Видео
Идентификатор : 1
Формат : AVC
Формат/Информация : Advanced Video Codec
Профиль формата : High@L4.1
Параметр CABAC формата : Да
Параметр ReFrames формата : 12 кадров
Идентификатор кодека : V_MPEG4/ISO/AVC
Продолжительность : 1 ч. 27 м.
Битрейт : 4245 Кбит/сек
Ширина : 1148 пикселей
Высота : 480 пикселей
Соотношение сторон : 2,40:1
Режим частоты кадров : Постоянный
Частота кадров : 23,976 кадра/сек
Цветовое пространство : YUV
Субдискретизация насыщенности : 4:2:0
Битовая глубина : 8 бит
Тип развёртки : Прогрессивная
Бит/(Пиксели*Кадры) : 0.321
Размер потока : 2,59 Гбайт (81%)
Заголовок : Прогулки с динозаврами / Walking with Dinosaurs (2013) BDRip-AVC by HQCLUB [Elheym]
Библиотека кодирования : x264 core 144 r2525kMod 40bb568
Настройки программы : cabac=1 / ref=12 / deblock=1:-3:-2 / analyse=0x3:0x133 / me=umh / subme=11 / psy=1 / fade_compensate=0.00 / psy_rd=1.00:0.00 / mixed_ref=1 / me_range=32 / chroma_me=1 / trellis=2 / 8x8dct=1 / cqm=0 / deadzone=21,11 / fast_pskip=0 / chroma_qp_offset=-4 / threads=6 / lookahead_threads=1 / sliced_threads=0 / nr=0 / decimate=0 / interlaced=0 / bluray_compat=0 / constrained_intra=0 / fgo=0 / bframes=11 / b_pyramid=2 / b_adapt=2 / b_bias=0 / direct=1 / weightb=1 / open_gop=0 / weightp=2 / keyint=230 / keyint_min=23 / scenecut=40 / intra_refresh=0 / rc_lookahead=40 / rc=crf / mbtree=0 / crf=17.8000 / qcomp=0.80 / qpmin=0 / qpmax=69 / qpstep=4 / vbv_maxrate=50000 / vbv_bufsize=62500 / crf_max=0.0 / nal_hrd=none / filler=0 / ip_ratio=1.40 / pb_ratio=1.30 / aq=1:0.90
Язык : English
Default : Да
Forced : Нет

Аудио #1
Идентификатор : 2
Формат : AC-3
Формат/Информация : Audio Coding 3
Расширение режима : CM (complete main)
Параметр Endianness формата : Big
Идентификатор кодека : A_AC3
Продолжительность : 1 ч. 27 м.
Вид битрейта : Постоянный
Битрейт : 448 Кбит/сек
Каналы : 6 каналов
Расположение каналов : Front: L C R, Side: L R, LFE
Частота : 48,0 КГц
Битовая глубина : 16 бит
Метод сжатия : С потерями
Размер потока : 280 Мбайт (9%)
Заголовок : АС3 5.1 @ 448 kbps - Dub, BD EUR
Язык : Russian
Default : Нет
Forced : Нет

Аудио #2
Идентификатор : 3
Формат : AC-3
Формат/Информация : Audio Coding 3
Расширение режима : CM (complete main)
Параметр Endianness формата : Big
Идентификатор кодека : A_AC3
Продолжительность : 1 ч. 27 м.
Вид битрейта : Постоянный
Битрейт : 448 Кбит/сек
Каналы : 6 каналов
Расположение каналов : Front: L C R, Side: L R, LFE
Частота : 48,0 КГц
Битовая глубина : 16 бит
Метод сжатия : С потерями
Размер потока : 280 Мбайт (9%)
Заголовок : АС3 5.1 @ 448 kbps - Original
Язык : English
Default : Нет
Forced : Нет

Текст #1
Идентификатор : 4
Формат : UTF-8
Идентификатор кодека : S_TEXT/UTF8
Идентификатор кодека/Информация : UTF-8 Plain Text
Заголовок : Full
Язык : Russian
Default : Нет
Forced : Нет

Текст #2
Идентификатор : 5
Формат : UTF-8
Идентификатор кодека : S_TEXT/UTF8
Идентификатор кодека/Информация : UTF-8 Plain Text
Заголовок : Full
Язык : Ukrainian
Default : Нет
Forced : Нет

Текст #3
Идентификатор : 6
Формат : UTF-8
Идентификатор кодека : S_TEXT/UTF8
Идентификатор кодека/Информация : UTF-8 Plain Text
Заголовок : Full
Язык : English
Default : Нет
Forced : Нет

Текст #4
Идентификатор : 7
Формат : UTF-8
Идентификатор кодека : S_TEXT/UTF8
Идентификатор кодека/Информация : UTF-8 Plain Text
Заголовок : Full SDH
Язык : English
Default : Нет
Forced : Нет

Текст #5
Идентификатор : 8
Формат : UTF-8
Идентификатор кодека : S_TEXT/UTF8
Идентификатор кодека/Информация : UTF-8 Plain Text
Заголовок : Full SDH Colored
Язык : English
Default : Нет
Forced : Нет

Меню
00:00:00.000 : :Chapter 01
00:01:52.529 : :Chapter 03
00:05:28.953 : :Chapter 05
00:07:35.746 : :Chapter 07
00:12:14.108 : :Chapter 09
00:14:54.977 : :Chapter 11
00:17:11.947 : :Chapter 13
00:18:38.367 : :Chapter 15
00:21:55.147 : :Chapter 17
00:24:38.518 : :Chapter 19
00:27:15.216 : :Chapter 21
00:28:35.964 : :Chapter 23
00:30:48.513 : :Chapter 25
00:33:06.401 : :Chapter 27
00:37:45.763 : :Chapter 29
00:42:10.319 : :Chapter 31
00:44:07.853 : :Chapter 33
00:47:43.860 : :Chapter 35
00:51:07.230 : :Chapter 37
00:52:58.800 : :Chapter 39
00:56:57.038 : :Chapter 41
00:58:28.755 : :Chapter 43
01:02:56.731 : :Chapter 45
01:06:53.384 : :Chapter 47
01:10:48.077 : :Chapter 49
01:17:02.242 : :Chapter 51
01:18:48.223 : :Chapter 53
01:20:23.568 : :Chapter 55
01:27:30.620 : :Chapter 56

"x264 log"

x264 [info]: frame I:1007 Avg QP:17.52 size:143342
x264 [info]: frame P:28561 Avg QP:19.58 size: 46232
x264 [info]: frame B:96326 Avg QP:21.82 size: 14405

x264 [info]: consecutive B-frames: 1.9% 2.8% 9.1% 32.2% 18.9% 21.6% 6.1% 4.1% 1.2% 0.7% 0.6% 0.8%

x264 [info]: ref P L0: 49.9% 15.2% 14.0% 5.4% 3.9% 3.0% 2.4% 1.5% 1.3% 1.1% 1.0% 1.1% 0.2% 0.0%
x264 [info]: ref B L0: 77.4% 9.0% 5.3% 2.6% 1.8% 1.3% 1.0% 0.6% 0.5% 0.3% 0.2%
x264 [info]: ref B L1: 93.2% 6.8%


Ссылки для скачивания:

http//bt.hqclub.net/files/ok.png Торрент: Прогулки с динозаврами / Walking with Dinosaurs (2013) BDRip-AVC

Лучшая онлайн игра!


Публикация материалов сайта на сторонних ресурсах возможна только в неизменном виде.


Обсудить релиз на форуме

Вас также может заинтересовать:


  • 5
 (Голосов: 1)


Распечатать новость на принтере Семейный

КОММЕНТАРИИ

 №1. ru4lan

Статус: Кинокритик | Новостей: 0 | Комментариев: 2736
ru4lan тяжеловата матроска для один час двадцать семь минут, беру авишку
~~~

31.01.2015 - 01:56   цитировать  

 №2. alex201

Статус: Новичок | Новостей: 0 | Комментариев: 26
ВЫ СМОТРИТЕ РЕКЛАМУ И ВАМ ЗА ЭТО ПЛАТЯТ!
СПРАВИТСЯ ДАЖЕ ШКОЛЬНИК!
Цитата:
Видео урок: http://youtu.be/fJEuC9rl89o
Ссылка на сам сайт: http://goo.gl/OnkqGq

~~~

6.02.2015 - 01:36   цитировать