Вас Приветствует Релиз-группа HQCLUB


Помощь ресурсу, очень ВАЖНО!!!



.


WELCOME
Добро пожаловать в наше интернет - сообщество!

Всех нас объединяет одна страсть - страсть к высококачественному кино. А это наш сайт. Ежедневно здесь мы публикуем десятки качественных, свежих, а порой и эксклюзивных релизов, которые Вы можете скачать совершенно бесплатно и без каких-либо регистраций. Посему рекомендуем Вам добавить HQClub себе в закладки, а также подписаться на нашу ленту новостей, чтобы всегда быть в курсе всех событий. Ну а если Вы такой же синий фил, как и мы, то милости просим на наш форум. И в заключение, попробуйте зарегистрироваться, ведь не так это и сложно и займет всего лишь пару минут! Вот увидите, Вам у нас понравится и Вы вольетесь в наш дружный коллектив! Ну а пока - осматривайтесь = )
Мы рады Вам !





Пираты Карибского моря: Квадрология / Pirates of the Caribbean: Quadrilogy (2003/2006/2007/2011) BDRip 720p

Оформил: Rensler | 30 октября 2015 - 21:16:59 | Комментариев: 3 | Обращений: 1512 {bookmarks_news}

Пираты Карибского моря: Проклятие Черной жемчужины / Pirates of the Caribbean: The Curse of the Black Pearl (2003) BDRip 720p

http//img10.lostpic.net/2015/10/30/1522460b390ffbc4f21dd2663e6798ee.png



Информация о фильме
Название: Пираты Карибского моря: Проклятие Черной жемчужины
Оригинальное название: Pirates of the Caribbean: The Curse of the Black Pearl
Год выхода: 2003
Жанр: Фэнтези, Боевик, Комедия, Приключения, Семейный
В ролях: Джонни Депп (Jack Sparrow), Орландо Блум (Will Turner), Кира Найтли (Elizabeth Swann), Джеффри Раш (Barbossa), Кевин МакНэлли (Djoshami Gibbs), Джек Дэвенпорт (James Norrington), Джонатан Прайс (Governor Swann Viterbi), Маккензи Крук (Ragetti), Ли Аренберг (Pintel), Мартин Клебба (Marti), Дэвид Бэилай (Cotton), Дэмиан О’Хейр (Lt. Gillette), Джиллз Нью (Murtogg), Энгус Барнетт (Mullroy), Айзек С. Синглтон мл.(Bo'sun)
Режиссёр: Гор Вербински / Gore Verbinski

О фильме: Жизнь харизматичного авантюриста, капитана Джека Воробья, полная увлекательных приключений, резко меняется, когда его заклятый враг капитан Барбосса похищает корабль Джека, Черную Жемчужину, а затем нападает на Порт Ройал и крадет прекрасную дочь губернатора, Элизабет Свонн.Друг детства Элизабет, Уилл Тернер, вместе с Джеком возглавляет спасательную экспедицию на самом быстром корабле Британии, в попытке вызволить девушку из плена и заодно отобрать у злодея Черную Жемчужину. Вслед за этой парочкой отправляется амбициозный коммодор Норрингтон, который к тому же числится женихом Элизабет.Однако Уилл не знает, что над Барбоссой висит вечное проклятие, при лунном свете превращающее его с командой в живых скелетов. Проклятье будет снято лишь тогда, когда украденное золото Ацтеков будет возвращено пиратами на старое место.

«Over 3000 Islands of Paradise -- For Some it's A Blessing -- For Others... It's A Curse»



User Rating: 8,2/10 (263 230 votes)
IMDB: 8,1/10 (730 228 votes)

Релиз от - http//lostpic.net/images/2015/09/27/68f6040cf6d8c2a9ae7072059386b6f9.png
Автор рипа: Rensler

Выпущено: США
Студия: First Mate Productions Inc., Jerry Bruckheimer Films, Walt Disney Pictures
Продолжительность: 02:23:15
Перевод:
• Профессиональный (полное дублирование) BluRay CEE
• Профессиональный (двухголосый, закадровый) «П.Гланц и И.Королёва»
• Авторский (одноголосый, закадровый) «А.Гаврилов»
• Профессиональный (многоголосый, закадровый) «Украинский»
Оригинальная аудиодорожка: Английская
Субтитры: Русские (форсированные, полные 2 вида), Украинские (полные), Английские (полные)
Главы: Сохранены чаптеры с оригинального Blu-ray Disc

Файл:
Формат: MKV
Качество: BDRip 720p (источник: HDClub / BD-Remux [US] / 1080p)
Видео: 1280x534 (2.40:1) at 23.976, MPEG-4 AVC ~ 8345 kbps avg, 0.509 bit/pixel
Аудио#1: 48 kHz/16-bit, AC3 Dolby Digital, 3/2 (L,C,R,l,r) + LFE ch, ~ 640 kbps avg | RUS. Blu-ray «Nevafilm»
Аудио#2: 48 kHz/16-bit, AC3 Dolby Digital, 3/2 (L,C,R,l,r) + LFE ch, ~ 640 kbps avg | RUS. P. Glants and I. Korolyova
Аудио#3: 48 kHz/16-bit, AC3 Dolby Digital, 3/2 (L,C,R,l,r) + LFE ch, ~ 640 kbps avg | RUS. А.Gavrilov
Аудио#4: 48 kHz/16-bit, AC3 Dolby Digital, 3/2 (L,C,R,l,r) + LFE ch, ~ 640 kbps avg | UKR
Аудио#5: 48 kHz/16-bit, AC3 Dolby Digital, 3/2 (L,C,R,l,r) + LFE ch, ~ 640 kbps avg | ENG
Размер: 11,55 GB
Скачать: Семпл
"MI@logx.264"
logx.264 написал:
x264 [info]: frame I:1874 Avg QP:16.42 size:110179
x264 [info]: frame P:45748 Avg QP:17.51 size: 60010
x264 [info]: frame B:158473 Avg QP:18.32 size: 37930
x264 [info]: consecutive B-frames: 2.0% 2.4% 8.7% 25.8% 17.1% 38.3% 3.9% 0.7%
x264 [info]: ref P L0: 49.0% 8.0% 16.8% 8.5% 6.0% 4.5% 3.4% 2.1% 1.5% 0.2% 0.0%

MediaInfo написал:
Уникальный идентификатор : 201061289770573874578148266129072634716 (0x9742FEF0DA651841BF6C17E3AEA0BB5C)
Полное имя : Pirates.of.the.Caribbean.The.Curse.of.the.Black.Pearl.2003.BluRay.3хRus.Ukr.Eng.-HQCLUB.mkv
Формат : Matroska
Версия формата : Version 4 / Version 2
Размер файла : 11,6 Гбайт
Продолжительность : 2 ч. 23 м.
Общий поток : 11,5 Мбит/сек
Название фильма : Пираты Карибского моря: Проклятие Черной жемчужины / Pirates of the Caribbean: The Curse of the Black Pearl (2003) BDRip 720p
Дата кодирования : UTC 2010-02-22 21:41:31
Программа кодирования : mkvmerge v5.8.0 ('No Sleep / Pillow') built on Sep 30 2012 10:57:14
Библиотека кодирования : libebml v1.3.0 + libmatroska v1.4.0
Attachements : Cover. Проклятие Черной жемчужины.png

Видео
Идентификатор : 1
Формат : AVC
Формат/Информация : Advanced Video Codec
Профиль формата : High@L4.1
Параметр CABAC формата : Да
Параметр ReFrames формата : 9 кадров
Идентификатор кодека : V_MPEG4/ISO/AVC
Продолжительность : 2 ч. 23 м.
Битрейт : 8345 Кбит/сек
Ширина : 1280 пикселей
Высота : 534 пикселя
Соотношение сторон : 2,40:1
Режим частоты кадров : Постоянный
Частота кадров : 23,976 кадра/сек
Цветовое пространство : YUV
Субдискретизация насыщенности : 4:2:0
Битовая глубина : 8 бит
Тип развёртки : Прогрессивная
Бит/(Пиксели*Кадры) : 0.509
Размер потока : 8,12 Гбайт (70%)
Заголовок : Release by Rensler
Библиотека кодирования : x264 core 148 r2597 e86f3a1
Настройки программы : cabac=1 / ref=9 / deblock=1:-3:-3 / analyse=0x3:0x113 / me=umh / subme=10 / psy=1 / psy_rd=1.03:0.16 / mixed_ref=1 / me_range=48 / chroma_me=1 / trellis=2 / 8x8dct=1 / cqm=0 / deadzone=21,11 / fast_pskip=0 / chroma_qp_offset=-3 / threads=3 / lookahead_threads=1 / sliced_threads=0 / nr=0 / decimate=0 / interlaced=0 / bluray_compat=0 / constrained_intra=0 / bframes=7 / b_pyramid=2 / b_adapt=2 / b_bias=0 / direct=3 / weightb=1 / open_gop=0 / weightp=2 / keyint=230 / keyint_min=23 / scenecut=40 / intra_refresh=0 / rc_lookahead=60 / rc=2pass / mbtree=0 / bitrate=8345 / ratetol=1.0 / qcomp=0.85 / qpmin=0 / qpmax=69 / qpstep=4 / cplxblur=20.0 / qblur=0.5 / vbv_maxrate=40000 / vbv_bufsize=30000 / nal_hrd=none / filler=0 / ip_ratio=1.20 / pb_ratio=1.10 / aq=2:0.90
Язык : English
Default : Да
Forced : Нет

Аудио #1
Идентификатор : 2
Формат : AC-3
Формат/Информация : Audio Coding 3
Расширение режима : CM (complete main)
Параметр Endianness формата : Big
Идентификатор кодека : A_AC3
Продолжительность : 2 ч. 23 м.
Вид битрейта : Постоянный
Битрейт : 640 Кбит/сек
Каналы : 6 каналов
Расположение каналов : Front: L C R, Side: L R, LFE
Частота : 48,0 КГц
Битовая глубина : 16 бит
Метод сжатия : С потерями
Размер потока : 656 Мбайт (6%)
Заголовок : BD CEE
Язык : Russian
Default : Да
Forced : Нет

Аудио #2
Идентификатор : 3
Формат : AC-3
Формат/Информация : Audio Coding 3
Расширение режима : CM (complete main)
Параметр Endianness формата : Big
Идентификатор кодека : A_AC3
Продолжительность : 2 ч. 23 м.
Вид битрейта : Постоянный
Битрейт : 640 Кбит/сек
Каналы : 6 каналов
Расположение каналов : Front: L C R, Side: L R, LFE
Частота : 48,0 КГц
Битовая глубина : 16 бит
Метод сжатия : С потерями
Размер потока : 656 Мбайт (6%)
Заголовок : P. Glants and I. Korolyova
Язык : Russian
Default : Нет
Forced : Нет

Аудио #3
Идентификатор : 4
Формат : AC-3
Формат/Информация : Audio Coding 3
Расширение режима : CM (complete main)
Параметр Endianness формата : Big
Идентификатор кодека : A_AC3
Продолжительность : 2 ч. 23 м.
Вид битрейта : Постоянный
Битрейт : 640 Кбит/сек
Каналы : 6 каналов
Расположение каналов : Front: L C R, Side: L R, LFE
Частота : 48,0 КГц
Битовая глубина : 16 бит
Метод сжатия : С потерями
Размер потока : 656 Мбайт (6%)
Заголовок : Gavrilov
Язык : Russian
Default : Нет
Forced : Нет

Аудио #4
Идентификатор : 5
Формат : AC-3
Формат/Информация : Audio Coding 3
Расширение режима : CM (complete main)
Параметр Endianness формата : Big
Идентификатор кодека : A_AC3
Продолжительность : 2 ч. 23 м.
Вид битрейта : Постоянный
Битрейт : 640 Кбит/сек
Каналы : 6 каналов
Расположение каналов : Front: L C R, Side: L R, LFE
Частота : 48,0 КГц
Битовая глубина : 16 бит
Метод сжатия : С потерями
Размер потока : 656 Мбайт (6%)
Заголовок : Ukrainian
Язык : Ukrainian
Default : Нет
Forced : Нет

Аудио #5
Идентификатор : 6
Формат : AC-3
Формат/Информация : Audio Coding 3
Расширение режима : CM (complete main)
Параметр Endianness формата : Big
Идентификатор кодека : A_AC3
Продолжительность : 2 ч. 23 м.
Вид битрейта : Постоянный
Битрейт : 640 Кбит/сек
Каналы : 6 каналов
Расположение каналов : Front: L C R, Side: L R, LFE
Частота : 48,0 КГц
Битовая глубина : 16 бит
Метод сжатия : С потерями
Размер потока : 656 Мбайт (6%)
Заголовок : Original
Язык : English
Default : Нет
Forced : Нет

Текст #1
Идентификатор : 7
Формат : UTF-8
Идентификатор кодека : S_TEXT/UTF8
Идентификатор кодека/Информация : UTF-8 Plain Text
Заголовок : Forced
Язык : Russian
Default : Да
Forced : Нет

Текст #2
Идентификатор : 8
Формат : UTF-8
Идентификатор кодека : S_TEXT/UTF8
Идентификатор кодека/Информация : UTF-8 Plain Text
Заголовок : Full Version-1
Язык : Russian
Default : Нет
Forced : Нет

Текст #3
Идентификатор : 9
Формат : UTF-8
Идентификатор кодека : S_TEXT/UTF8
Идентификатор кодека/Информация : UTF-8 Plain Text
Заголовок : Full Version-2
Язык : Russian
Default : Нет
Forced : Нет

Текст #4
Идентификатор : 10
Формат : UTF-8
Идентификатор кодека : S_TEXT/UTF8
Идентификатор кодека/Информация : UTF-8 Plain Text
Заголовок : Full
Язык : Ukrainian
Default : Нет
Forced : Нет

Текст #5
Идентификатор : 11
Формат : UTF-8
Идентификатор кодека : S_TEXT/UTF8
Идентификатор кодека/Информация : UTF-8 Plain Text
Заголовок : Full
Язык : English
Default : Нет
Forced : Нет

Меню
00:00:00.000 : en:Chapter 01
00:08:51.278 : en:Chapter 02
00:16:05.547 : en:Chapter 03
00:27:16.342 : en:Chapter 04
00:35:59.322 : en:Chapter 05
00:41:02.960 : en:Chapter 06
00:48:19.938 : en:Chapter 07
00:54:01.277 : en:Chapter 08
01:04:05.675 : en:Chapter 09
01:15:56.801 : en:Chapter 10
01:21:21.417 : en:Chapter 11
01:35:00.152 : en:Chapter 12
01:40:00.743 : en:Chapter 13
01:48:15.613 : en:Chapter 14
02:02:02.189 : en:Chapter 15
02:13:09.647 : en:Chapter 16
02:23:14.877 : en:Chapter 17

http//img10.lostpic.net/2015/10/30/081eb8802b53324df87fb77e0864fef5.th.png http//img10.lostpic.net/2015/10/30/95e61d754dff889dd6f4d2ee17bb50.th.png http//img10.lostpic.net/2015/10/30/d63526b37783afb9695e911df65fd3.th.png http//img10.lostpic.net/2015/10/30/9a5c2f2b56699f17a939d215ed917e7b.th.png
http//img10.lostpic.net/2015/10/30/c3fa72fa1f1af0ccbf553e0e6bc972.th.png http//img10.lostpic.net/2015/10/30/109b7b34c4366bc8b119fdb0907dd755.th.png http//img10.lostpic.net/2015/10/30/1e572a466b3764d2a860ab693c85.th.png http//img10.lostpic.net/2015/10/30/07bee73d07621ae39b11c6711c09b4fb.th.png
____________________________________________________________________________________________________________________________________________________

Пираты Карибского моря: Сундук мертвеца / Pirates of the Caribbean: Dead Man's Chest (2006) BDRip 720p

http//img10.lostpic.net/2015/10/30/3eff78879ed40beceb11e8d4bb65.png



Информация о фильме
Название: Пираты Карибского моря: Сундук мертвеца
Оригинальное название: Pirates of the Caribbean: Dead Man's Chest
Год выхода: 2006
Жанр: Фэнтези, Боевик, Комедия, Приключения, Семейный
В ролях: Джонни Депп (Jack Sparrow), Орландо Блум (Will Turner), Кира Найтли (Elizabeth Swann),Билл Найи (Davy Jones), Кевин МакНэлли (Djoshami Gibbs), Джек Дэвенпорт (James Norrington), Стеллан Скарсгард (Bootstrap Bill), Маккензи Крук (Ragetti), Ли Аренберг (Pintel), Мартин Клебба (Marti), Дэвид Бэилай (Cotton), Дэмиан О’Хейр (Lt. Gillette), Джиллз Нью (Murtogg), Наоми Харрис (Tia Dalma), Дэвид Скофилд (Mercer)
Режиссёр: Гор Вербински / Gore Verbinski

О фильме: Снова ввязавшись в какую-то сверхъестественную историю, капитан Джек Воробей обнаруживает, что должен отдать свою жизнь легендарному Дэйви Джоунсу, капитану призрачного "Летучего Голландца". У Джека совсем немного времени, чтобы найти выход из сложившийся ситуации, иначе он будет проклят и обречён прислуживать своему господину вечно. Кроме того, будто проблем и так было мало, Джек Воробей со своими трудностями умудрился расстроить свадьбу Уилла и Элизабет, которым в итоге приходится присоединиться к Джеку и отправиться навстречу новым приключениям.

«Jack is back! Never trust a pirate!»



User Rating: 8,1/10 (208 138 votes)
IMDB: 7,9/10 (476 670 votes)

Релиз от - http//lostpic.net/images/2015/09/27/68f6040cf6d8c2a9ae7072059386b6f9.png
Автор рипа: Rensler

Выпущено: США
Студия: First Mate Productions Inc., Jerry Bruckheimer Films, Walt Disney Pictures
Продолжительность: 02:30:41
Перевод:
• Профессиональный (полное дублирование) BluRay CEE
• Профессиональный (двухголосый, закадровый) «П.Гланц и И.Королёва»
• Авторский (одноголосый, закадровый) «А.Гаврилов»
• Профессиональный (полное дублирование) «Украинский 1+1»
Оригинальная аудиодорожка: Английская
Субтитры: Русские (форсированные, полные), Украинские (форсированные, полные), Английские (полные)
Главы: Сохранены чаптеры с оригинального Blu-ray Disc

Файл:
Формат: MKV
Качество: BDRip 720p (источник: HDClub / BD-Remux [US] / 1080p)
Видео: 1280x534 (2.40:1) at 23.976, MPEG-4 AVC ~ 7783 kbps avg, 0.475 bit/pixel
Аудио#1: 48 kHz/16-bit, AC3 Dolby Digital, 3/2 (L,C,R,l,r) + LFE ch, ~ 640 kbps avg | RUS. Blu-ray «Nevafilm»
Аудио#2: 48 kHz/16-bit, AC3 Dolby Digital, 3/2 (L,C,R,l,r) + LFE ch, ~ 640 kbps avg | RUS. P. Glants and I. Korolyova
Аудио#3: 48 kHz/16-bit, AC3 Dolby Digital, 3/2 (L,C,R,l,r) + LFE ch, ~ 640 kbps avg | RUS. А.Gavrilov
Аудио#4: 48 kHz/16-bit, AC3 Dolby Digital, 3/2 (L,C,R,l,r) + LFE ch, ~ 640 kbps avg | UKR
Аудио#5: 48 kHz/16-bit, AC3 Dolby Digital, 3/2 (L,C,R,l,r) + LFE ch, ~ 640 kbps avg | ENG
Размер: 11,55 GB
Скачать: Семпл
"MI@logx.264"
logx.264 написал:
x264 [info]: frame I:1789 Avg QP:16.25 size:112449
x264 [info]: frame P:49389 Avg QP:17.38 size: 58722
x264 [info]: frame B:165566 Avg QP:17.84 size: 33217
x264 [info]: consecutive B-frames: 2.0% 2.6% 10.4% 27.4% 17.1% 34.7% 3.8% 0.7% 0.5% 0.3% 0.4%
x264 [info]: ref P L0: 45.1% 12.2% 18.5% 6.6% 5.6% 3.8% 3.6% 2.1% 2.2% 0.4% 0.0%

MediaInfo написал:
Уникальный идентификатор : 224068227461204783769550712011813151563 (0xA891F88BF0E682989DFC65EEC06DE34B)
Полное имя : Pirates.of.the.Caribbean.Dead.Man's.Chest.2006.BluRay.3хRus.Ukr.Eng.-HQCLUB.mkv
Формат : Matroska
Версия формата : Version 4 / Version 2
Размер файла : 11,6 Гбайт
Продолжительность : 2 ч. 30 м.
Общий поток : 11,0 Мбит/сек
Название фильма : Пираты Карибского моря: Сундук мертвеца / Pirates of the Caribbean: Dead Man's Chest (2006) BDRip 720p
Дата кодирования : UTC 2010-02-22 21:41:31
Программа кодирования : mkvmerge v5.8.0 ('No Sleep / Pillow') built on Sep 30 2012 10:57:14
Библиотека кодирования : libebml v1.3.0 + libmatroska v1.4.0
Attachements : Cover.Сундук мертвеца.png

Видео
Идентификатор : 1
Формат : AVC
Формат/Информация : Advanced Video Codec
Профиль формата : High@L4.1
Параметр CABAC формата : Да
Параметр ReFrames формата : 9 кадров
Идентификатор кодека : V_MPEG4/ISO/AVC
Продолжительность : 2 ч. 30 м.
Битрейт : 7783 Кбит/сек
Ширина : 1280 пикселей
Высота : 534 пикселя
Соотношение сторон : 2,40:1
Режим частоты кадров : Постоянный
Частота кадров : 23,976 кадра/сек
Цветовое пространство : YUV
Субдискретизация насыщенности : 4:2:0
Битовая глубина : 8 бит
Тип развёртки : Прогрессивная
Бит/(Пиксели*Кадры) : 0.475
Размер потока : 7,96 Гбайт (69%)
Заголовок : Release by Rensler
Библиотека кодирования : x264 core 142 r2431 ac76440
Настройки программы : cabac=1 / ref=9 / deblock=1:-3:-3 / analyse=0x3:0x113 / me=umh / subme=10 / psy=1 / psy_rd=1.05:0.15 / mixed_ref=1 / me_range=48 / chroma_me=1 / trellis=2 / 8x8dct=1 / cqm=0 / deadzone=21,11 / fast_pskip=0 / chroma_qp_offset=-3 / threads=3 / lookahead_threads=1 / sliced_threads=0 / nr=0 / decimate=0 / interlaced=0 / bluray_compat=0 / constrained_intra=0 / bframes=10 / b_pyramid=2 / b_adapt=2 / b_bias=0 / direct=3 / weightb=1 / open_gop=0 / weightp=2 / keyint=230 / keyint_min=23 / scenecut=40 / intra_refresh=0 / rc_lookahead=60 / rc=2pass / mbtree=0 / bitrate=7783 / ratetol=1.0 / qcomp=0.85 / qpmin=0 / qpmax=69 / qpstep=4 / cplxblur=20.0 / qblur=0.5 / vbv_maxrate=40000 / vbv_bufsize=30000 / nal_hrd=none / filler=0 / ip_ratio=1.20 / pb_ratio=1.10 / aq=2:0.90
Язык : English
Default : Да
Forced : Нет

Аудио #1
Идентификатор : 2
Формат : AC-3
Формат/Информация : Audio Coding 3
Расширение режима : CM (complete main)
Параметр Endianness формата : Big
Идентификатор кодека : A_AC3
Продолжительность : 2 ч. 30 м.
Вид битрейта : Постоянный
Битрейт : 640 Кбит/сек
Каналы : 6 каналов
Расположение каналов : Front: L C R, Side: L R, LFE
Частота : 48,0 КГц
Битовая глубина : 16 бит
Метод сжатия : С потерями
Размер потока : 690 Мбайт (6%)
Заголовок : BD CEE
Язык : Russian
Default : Да
Forced : Нет

Аудио #2
Идентификатор : 3
Формат : AC-3
Формат/Информация : Audio Coding 3
Расширение режима : CM (complete main)
Параметр Endianness формата : Big
Идентификатор кодека : A_AC3
Продолжительность : 2 ч. 30 м.
Вид битрейта : Постоянный
Битрейт : 640 Кбит/сек
Каналы : 6 каналов
Расположение каналов : Front: L C R, Side: L R, LFE
Частота : 48,0 КГц
Битовая глубина : 16 бит
Метод сжатия : С потерями
Размер потока : 690 Мбайт (6%)
Заголовок : P. Glants and I. Korolyova
Язык : Russian
Default : Нет
Forced : Нет

Аудио #3
Идентификатор : 4
Формат : AC-3
Формат/Информация : Audio Coding 3
Расширение режима : CM (complete main)
Параметр Endianness формата : Big
Идентификатор кодека : A_AC3
Продолжительность : 2 ч. 30 м.
Вид битрейта : Постоянный
Битрейт : 640 Кбит/сек
Каналы : 6 каналов
Расположение каналов : Front: L C R, Side: L R, LFE
Частота : 48,0 КГц
Битовая глубина : 16 бит
Метод сжатия : С потерями
Размер потока : 690 Мбайт (6%)
Заголовок : Gavrilov
Язык : Russian
Default : Нет
Forced : Нет

Аудио #4
Идентификатор : 5
Формат : AC-3
Формат/Информация : Audio Coding 3
Расширение режима : CM (complete main)
Параметр Endianness формата : Big
Идентификатор кодека : A_AC3
Продолжительность : 2 ч. 30 м.
Вид битрейта : Постоянный
Битрейт : 640 Кбит/сек
Каналы : 6 каналов
Расположение каналов : Front: L C R, Side: L R, LFE
Частота : 48,0 КГц
Битовая глубина : 16 бит
Метод сжатия : С потерями
Размер потока : 690 Мбайт (6%)
Заголовок : Ukrainian
Язык : Ukrainian
Default : Нет
Forced : Нет

Аудио #5
Идентификатор : 6
Формат : AC-3
Формат/Информация : Audio Coding 3
Расширение режима : CM (complete main)
Параметр Endianness формата : Big
Идентификатор кодека : A_AC3
Продолжительность : 2 ч. 30 м.
Вид битрейта : Постоянный
Битрейт : 640 Кбит/сек
Каналы : 6 каналов
Расположение каналов : Front: L C R, Side: L R, LFE
Частота : 48,0 КГц
Битовая глубина : 16 бит
Метод сжатия : С потерями
Размер потока : 690 Мбайт (6%)
Заголовок : Original
Язык : English
Default : Нет
Forced : Нет

Текст #1
Идентификатор : 7
Формат : UTF-8
Идентификатор кодека : S_TEXT/UTF8
Идентификатор кодека/Информация : UTF-8 Plain Text
Заголовок : Forced
Язык : Russian
Default : Да
Forced : Нет

Текст #2
Идентификатор : 8
Формат : UTF-8
Идентификатор кодека : S_TEXT/UTF8
Идентификатор кодека/Информация : UTF-8 Plain Text
Заголовок : Full
Язык : Russian
Default : Нет
Forced : Нет

Текст #3
Идентификатор : 9
Формат : UTF-8
Идентификатор кодека : S_TEXT/UTF8
Идентификатор кодека/Информация : UTF-8 Plain Text
Заголовок : Forced
Язык : Ukrainian
Default : Нет
Forced : Нет

Текст #4
Идентификатор : 10
Формат : UTF-8
Идентификатор кодека : S_TEXT/UTF8
Идентификатор кодека/Информация : UTF-8 Plain Text
Заголовок : Full
Язык : English
Default : Нет
Forced : Нет

Меню
00:00:00.000 : en:Chapter 01
00:04:18.924 : en:Chapter 02
00:09:53.009 : en:Chapter 03
00:12:13.441 : en:Chapter 04
00:19:09.064 : en:Chapter 05
00:23:53.471 : en:Chapter 06
00:30:15.480 : en:Chapter 07
00:35:29.418 : en:Chapter 08
00:40:32.929 : en:Chapter 09
00:46:28.034 : en:Chapter 10
00:50:25.563 : en:Chapter 11
00:56:18.625 : en:Chapter 12
00:59:52.380 : en:Chapter 13
01:05:45.189 : en:Chapter 14
01:11:55.853 : en:Chapter 15
01:17:04.327 : en:Chapter 16
01:22:10.256 : en:Chapter 17
01:30:36.639 : en:Chapter 18
01:34:38.171 : en:Chapter 19
01:39:21.828 : en:Chapter 20
01:44:52.408 : en:Chapter 21
01:49:14.712 : en:Chapter 22
01:54:55.805 : en:Chapter 23
01:59:36.042 : en:Chapter 24
02:04:59.908 : en:Chapter 25
02:10:27.194 : en:Chapter 26
02:16:20.629 : en:Chapter 27
02:21:04.789 : en:Chapter 28
02:30:39.030 : en:Chapter 29

http//img10.lostpic.net/2015/10/30/b60a44633bda0e5f3566d979551c20.th.png http//img10.lostpic.net/2015/10/30/9d79c609b7338c82b0179a3715a2dd.th.png http//img10.lostpic.net/2015/10/30/7fe7b356e0402068c17e17aa7a300e23.th.png http//img10.lostpic.net/2015/10/30/f678e38f508945f90f7277a5f3f1f6eb.th.png
http//img10.lostpic.net/2015/10/30/45997d7b637389e62acdd451ccb0a40e.th.png http//img10.lostpic.net/2015/10/30/11a6216e8978427c3c00e2c6ece84ed1.th.png http//img10.lostpic.net/2015/10/30/225ef8f597b93098617c37de00e51422.th.png http//img10.lostpic.net/2015/10/30/2e6464a109d9f2fb4bbf311399f0a5.th.png
____________________________________________________________________________________________________________________________________________________

Пираты Карибского моря: На краю Света / Pirates of the Caribbean: At World's End (2007) BDRip 720p

http//img10.lostpic.net/2015/10/30/ed9f4abb6e020072beae8d2e5cb2a596.png



Информация о фильме
Название: Пираты Карибского моря: На краю Света
Оригинальное название: Pirates of the Caribbean: At World's End
Год выхода: 2007
Жанр: Фэнтези, Боевик, Комедия, Приключения, Семейный
В ролях: Джонни Депп (Jack Sparrow), Орландо Блум (Will Turner), Кира Найтли (Elizabeth Swann), Джеффри Раш Билл (Captain Hector Barbossa), Найи (Davy Jones), Кевин МакНэлли (Djoshami Gibbs), Джек Дэвенпорт (James Norrington), Стеллан Скарсгард (Bootstrap Bill), Чоу Юнь-Фат (Captain Sao Feng), Кит Ричардс (Captain Teague), Маккензи Крук (Ragetti), Ли Аренберг (Pintel), Мартин Клебба (Marti), Дэвид Бэилай (Cotton), Дэмиан О’Хейр (Lt. Gillette), Джиллз Нью (Murtogg), Наоми Харрис (Tia Dalma), Дэвид Скофилд (Mercer)
Режиссёр: Гор Вербински / Gore Verbinski

О фильме: Новые приключения Джека Воробья и его друзей Уилла Тёрнера и Элизабет Суонн. На этот раз Уиллу и Элизабет придётся объединиться с самим Капитаном Барбоссой для того, чтобы отправиться на край света и спасти своего друга - Джека. Ситуация осложняется тем, что Элизабет попадает к сингапурским пиратам…

«At the End of the World, the Adventure Begins»



User Rating: 8,1/10 (174 407 votes)
IMDB: 7,1/10 (428 675 votes)

Релиз от - http//lostpic.net/images/2015/09/27/68f6040cf6d8c2a9ae7072059386b6f9.png
Автор рипа: Rensler

Выпущено: США
Студия: First Mate Productions Inc., Jerry Bruckheimer Films, Walt Disney Pictures
Продолжительность: 02:48:30
Перевод:
• Профессиональный (полное дублирование) BluRay CEE
• Профессиональный (двухголосый, закадровый) «П.Гланц и И.Королёва»
• Авторский (одноголосый, закадровый) «А.Гаврилов»
• Профессиональный (полное дублирование) «Украинский 1+1»
Оригинальная аудиодорожка: Английская
Субтитры: Русские (форсированные, полные), Украинские (форсированные, полные), Английские (полные)
Главы: Сохранены чаптеры с оригинального Blu-ray Disc

Файл:
Формат: MKV
Качество: BDRip 720p (источник: HDClub / BD-Remux [US] / 1080p)
Видео: 1280x534 (2.40:1) at 23.976, MPEG-4 AVC ~ 6620 kbps avg, 0.404 bit/pixel
Аудио#1: 48 kHz/16-bit, AC3 Dolby Digital, 3/2 (L,C,R,l,r) + LFE ch, ~ 640 kbps avg | RUS. Blu-ray «Nevafilm»
Аудио#2: 48 kHz/16-bit, AC3 Dolby Digital, 3/2 (L,C,R,l,r) + LFE ch, ~ 640 kbps avg | RUS. P. Glants and I. Korolyova
Аудио#3: 48 kHz/16-bit, AC3 Dolby Digital, 3/2 (L,C,R,l,r) + LFE ch, ~ 640 kbps avg | RUS. А.Gavrilov
Аудио#4: 48 kHz/16-bit, AC3 Dolby Digital, 3/2 (L,C,R,l,r) + LFE ch, ~ 640 kbps avg | UKR
Аудио#5: 48 kHz/16-bit, AC3 Dolby Digital, 3/2 (L,C,R,l,r) + LFE ch, ~ 640 kbps avg | ENG
Размер: 11,55 GB
Скачать: Семпл
"MI@logx.264"
logx.264 написал:
x264 [info]: frame I:1983 Avg QP:17.25 size:104589
x264 [info]: frame P:50981 Avg QP:18.81 size: 51176
x264 [info]: frame B:189460 Avg QP:19.40 size: 29278
x264 [info]: consecutive B-frames: 1.7% 1.6% 6.2% 24.9% 14.9% 42.7% 3.9% 0.8% 0.6% 1.5% 0.4% 0.5%
x264 [info]: ref P L0: 48.2% 7.6% 17.1% 8.5% 6.2% 4.6% 3.7% 2.3% 1.8% 0.2% 0.0%

MediaInfo написал:
Уникальный идентификатор : 218648604097676649494042750886519649522 (0xA47E307C0F949B9BB44CEF32DF6E34F2)
Полное имя : Pirates.of.the.Caribbean.At.World's.End.2007.BluRay.3хRus.Ukr.Eng.-HQCLUB.mkv
Формат : Matroska
Версия формата : Version 4 / Version 2
Размер файла : 11,6 Гбайт
Продолжительность : 2 ч. 48 м.
Общий поток : 9821 Кбит/сек
Название фильма : Пираты Карибского моря: На краю Света / Pirates of the Caribbean: At World's End (2007) BDRip 720p
Дата кодирования : UTC 2010-02-22 21:41:31
Программа кодирования : mkvmerge v5.8.0 ('No Sleep / Pillow') built on Sep 30 2012 10:57:14
Библиотека кодирования : libebml v1.3.0 + libmatroska v1.4.0
Attachements : Cover. На краю Света..png

Видео
Идентификатор : 1
Формат : AVC
Формат/Информация : Advanced Video Codec
Профиль формата : High@L4.1
Параметр CABAC формата : Да
Параметр ReFrames формата : 9 кадров
Идентификатор кодека : V_MPEG4/ISO/AVC
Продолжительность : 2 ч. 48 м.
Битрейт : 6620 Кбит/сек
Ширина : 1280 пикселей
Высота : 534 пикселя
Соотношение сторон : 2,40:1
Режим частоты кадров : Постоянный
Частота кадров : 23,976 кадра/сек
Цветовое пространство : YUV
Субдискретизация насыщенности : 4:2:0
Битовая глубина : 8 бит
Тип развёртки : Прогрессивная
Бит/(Пиксели*Кадры) : 0.404
Размер потока : 7,56 Гбайт (65%)
Заголовок : Release by Rensler
Библиотека кодирования : x264 core 148 r2638 7599210
Настройки программы : cabac=1 / ref=9 / deblock=1:-3:-3 / analyse=0x3:0x113 / me=umh / subme=10 / psy=1 / psy_rd=1.03:0.15 / mixed_ref=1 / me_range=48 / chroma_me=1 / trellis=2 / 8x8dct=1 / cqm=0 / deadzone=21,11 / fast_pskip=0 / chroma_qp_offset=-3 / threads=3 / lookahead_threads=1 / sliced_threads=0 / nr=0 / decimate=0 / interlaced=0 / bluray_compat=0 / constrained_intra=0 / bframes=11 / b_pyramid=2 / b_adapt=2 / b_bias=0 / direct=3 / weightb=1 / open_gop=0 / weightp=2 / keyint=230 / keyint_min=23 / scenecut=40 / intra_refresh=0 / rc_lookahead=60 / rc=2pass / mbtree=0 / bitrate=6620 / ratetol=1.0 / qcomp=0.85 / qpmin=0 / qpmax=69 / qpstep=4 / cplxblur=20.0 / qblur=0.5 / vbv_maxrate=40000 / vbv_bufsize=30000 / nal_hrd=none / filler=0 / ip_ratio=1.20 / pb_ratio=1.10 / aq=2:0.90
Язык : English
Default : Да
Forced : Нет

Аудио #1
Идентификатор : 2
Формат : AC-3
Формат/Информация : Audio Coding 3
Расширение режима : CM (complete main)
Параметр Endianness формата : Big
Идентификатор кодека : A_AC3
Продолжительность : 2 ч. 48 м.
Вид битрейта : Постоянный
Битрейт : 640 Кбит/сек
Каналы : 6 каналов
Расположение каналов : Front: L C R, Side: L R, LFE
Частота : 48,0 КГц
Битовая глубина : 16 бит
Метод сжатия : С потерями
Размер потока : 771 Мбайт (7%)
Заголовок : BD CEE
Язык : Russian
Default : Да
Forced : Нет

Аудио #2
Идентификатор : 3
Формат : AC-3
Формат/Информация : Audio Coding 3
Расширение режима : CM (complete main)
Параметр Endianness формата : Big
Идентификатор кодека : A_AC3
Продолжительность : 2 ч. 48 м.
Вид битрейта : Постоянный
Битрейт : 640 Кбит/сек
Каналы : 6 каналов
Расположение каналов : Front: L C R, Side: L R, LFE
Частота : 48,0 КГц
Битовая глубина : 16 бит
Метод сжатия : С потерями
Размер потока : 771 Мбайт (7%)
Заголовок : P. Glants and I. Korolyova
Язык : Russian
Default : Нет
Forced : Нет

Аудио #3
Идентификатор : 4
Формат : AC-3
Формат/Информация : Audio Coding 3
Расширение режима : CM (complete main)
Параметр Endianness формата : Big
Идентификатор кодека : A_AC3
Продолжительность : 2 ч. 48 м.
Вид битрейта : Постоянный
Битрейт : 640 Кбит/сек
Каналы : 6 каналов
Расположение каналов : Front: L C R, Side: L R, LFE
Частота : 48,0 КГц
Битовая глубина : 16 бит
Метод сжатия : С потерями
Размер потока : 771 Мбайт (7%)
Заголовок : Gavrilov
Язык : Russian
Default : Нет
Forced : Нет

Аудио #4
Идентификатор : 5
Формат : AC-3
Формат/Информация : Audio Coding 3
Расширение режима : CM (complete main)
Параметр Endianness формата : Big
Идентификатор кодека : A_AC3
Продолжительность : 2 ч. 48 м.
Вид битрейта : Постоянный
Битрейт : 640 Кбит/сек
Каналы : 6 каналов
Расположение каналов : Front: L C R, Side: L R, LFE
Частота : 48,0 КГц
Битовая глубина : 16 бит
Метод сжатия : С потерями
Размер потока : 771 Мбайт (7%)
Заголовок : Ukrainian
Язык : Ukrainian
Default : Нет
Forced : Нет

Аудио #5
Идентификатор : 6
Формат : AC-3
Формат/Информация : Audio Coding 3
Расширение режима : CM (complete main)
Параметр Endianness формата : Big
Идентификатор кодека : A_AC3
Продолжительность : 2 ч. 48 м.
Вид битрейта : Постоянный
Битрейт : 640 Кбит/сек
Каналы : 6 каналов
Расположение каналов : Front: L C R, Side: L R, LFE
Частота : 48,0 КГц
Битовая глубина : 16 бит
Метод сжатия : С потерями
Размер потока : 771 Мбайт (7%)
Заголовок : Original
Язык : English
Default : Нет
Forced : Нет

Текст #1
Идентификатор : 7
Формат : UTF-8
Идентификатор кодека : S_TEXT/UTF8
Идентификатор кодека/Информация : UTF-8 Plain Text
Заголовок : Forced
Язык : Russian
Default : Да
Forced : Нет

Текст #2
Идентификатор : 8
Формат : UTF-8
Идентификатор кодека : S_TEXT/UTF8
Идентификатор кодека/Информация : UTF-8 Plain Text
Заголовок : Full
Язык : Russian
Default : Нет
Forced : Нет

Текст #3
Идентификатор : 9
Формат : UTF-8
Идентификатор кодека : S_TEXT/UTF8
Идентификатор кодека/Информация : UTF-8 Plain Text
Заголовок : Forced
Язык : Ukrainian
Default : Нет
Forced : Нет

Текст #4
Идентификатор : 10
Формат : UTF-8
Идентификатор кодека : S_TEXT/UTF8
Идентификатор кодека/Информация : UTF-8 Plain Text
Заголовок : Full
Язык : Ukrainian
Default : Нет
Forced : Нет

Текст #5
Идентификатор : 11
Формат : UTF-8
Идентификатор кодека : S_TEXT/UTF8
Идентификатор кодека/Информация : UTF-8 Plain Text
Заголовок : Full
Язык : English
Default : Нет
Forced : Нет

Меню
00:00:00.000 : en:Chapter 01
00:04:33.940 : en:Chapter 02
00:10:01.809 : en:Chapter 03
00:19:58.280 : en:Chapter 04
00:26:07.482 : en:Chapter 05
00:32:47.340 : en:Chapter 06
00:39:40.336 : en:Chapter 07
00:46:04.762 : en:Chapter 08
00:51:31.963 : en:Chapter 09
00:58:03.730 : en:Chapter 10
01:04:50.678 : en:Chapter 11
01:12:46.820 : en:Chapter 12
01:17:54.878 : en:Chapter 13
01:24:46.539 : en:Chapter 14
01:28:41.357 : en:Chapter 15
01:33:34.150 : en:Chapter 16
01:38:05.671 : en:Chapter 17
01:41:52.981 : en:Chapter 18
01:48:12.652 : en:Chapter 19
01:53:13.286 : en:Chapter 20
01:59:31.372 : en:Chapter 21
02:05:52.211 : en:Chapter 22
02:09:13.245 : en:Chapter 23
02:13:53.525 : en:Chapter 24
02:23:19.257 : en:Chapter 25
02:28:15.636 : en:Chapter 26
02:34:29.218 : en:Chapter 27
02:38:48.560 : en:Chapter 28
02:48:30.100 : en:Chapter 29

http//img10.lostpic.net/2015/10/30/5cfe780fa3bfd68887d11750c05f82.th.png http//img10.lostpic.net/2015/10/30/5d23d241e62b335980044d3e152a84.th.png http//img10.lostpic.net/2015/10/30/e30f7a7bf0141879f762f7a39a873217.th.png http//img10.lostpic.net/2015/10/30/3feeac852f3c31b54b52e8eebb74d2.th.png
http//img10.lostpic.net/2015/10/30/478708c156ef47ce010bfea61a698d.th.png http//img10.lostpic.net/2015/10/30/08d22fbce88e1e64423e13d2b2304ce4.th.png http//img10.lostpic.net/2015/10/30/b34fdf7b1e05b958708aaeb9ee08.th.png http//img10.lostpic.net/2015/10/30/b5b23f9019f820c1a6cfe73ee655dd77.th.png
____________________________________________________________________________________________________________________________________________________

Пираты Карибского моря: На странных берегах / Pirates of the Caribbean: On Stranger Tides (2011) BDRip 720p

http//img10.lostpic.net/2015/10/30/d1fba82f2d5667b6b0c581a5dc236d92.png



Информация о фильме
Название: Пираты Карибского моря: На странных берегах
Оригинальное название: Pirates of the Caribbean: On Stranger Tides
Год выхода: 2011
Жанр: Фэнтези, Боевик, Комедия, Приключения, Семейный
В ролях: Джонни Депп (Jack Sparrow), Пенелопа Крус (Angelica), Джеффри Раш Билл (Captain Hector Barbossa), Иэн МакШейн (Blackbeard), Кевин МакНэлли (Djoshami Gibbs), Сэм Клафлин (Philip), Астрид Берже-Фрисби (Syrena), Стивен Грэм (Scrum), Кит Ричардс (Captain Teague), Маккензи Крук (Ragetti), Ричард Гриффитс (King George), Дэмиан О’Хейр (Gillette), Джонни Рис (Groves), Джуди Денч (Society Lady), Кристофер Фэйрбэнк (Ezekiel), Энтон Лессер (Lord John Carteret), Бронсон Уэбб (Cook)
Режиссёр: Роб Маршалл / Rob Marshall

О фильме: В новой истории о поисках истины, предательстве, вечной молодости и смертельной опасности капитану Джеку Воробью предстоит столкнуться с женщиной из своего прошлого Анжеликой. До самого конца не будет понятно, связывает ли их настоящая любовь, или же Анжелика искусно притворяется, чтобы вместе с Джеком добраться до таинственного источника вечной молодости.
Она силой принуждает капитана Джека Воробья взойти на корабль «Месть Королевы Анны», которым управляет коварный злодей Черная Борода. Наш герой оказывается в ситуации, когда он не знает, чего ему бояться больше - ужасного злодея или же свою давнюю подругу.

«Live Forever or Die Trying...»



User Rating: 7,8/10 (134 414 votes)
IMDB: 6,7/10 (337 445 votes)

Релиз от - http//lostpic.net/images/2015/09/27/68f6040cf6d8c2a9ae7072059386b6f9.png
Автор рипа: Rensler

Выпущено: США
Студия: First Mate Productions Inc., Jerry Bruckheimer Films, Walt Disney Pictures
Продолжительность: 02:16:24
Перевод:
• Профессиональный (полное дублирование) BluRay CEE
• Авторский (одноголосый, закадровый) «А.Гаврилов»
• Профессиональный (полное дублирование) «Украинский 1+1»
Оригинальная аудиодорожка: Английская
Субтитры: Русские (форсированные, полные), Украинские (форсированные, полные), Английские (полные)
Главы: Сохранены чаптеры с оригинального Blu-ray Disc

Файл:
Формат: MKV
Качество: BDRip 720p (источник: HDClub / BD-Remux [US] / 1080p)
Видео: 1280x534 (2.40:1) at 23.976, MPEG-4 AVC ~ 9567 kbps avg, 0.584 bit/pixel
Аудио#1: 48 kHz/16-bit, AC3 Dolby Digital, 3/2 (L,C,R,l,r) + LFE ch, ~ 640 kbps avg | RUS. Blu-ray «Nevafilm»
Аудио#2: 48 kHz/16-bit, AC3 Dolby Digital, 3/2 (L,C,R,l,r) + LFE ch, ~ 640 kbps avg | RUS. А.Gavrilov
Аудио#3: 48 kHz/16-bit, AC3 Dolby Digital, 3/2 (L,C,R,l,r) + LFE ch, ~ 640 kbps avg | UKR
Аудио#4: 48 kHz/16-bit, AC3 Dolby Digital, 3/2 (L,C,R,l,r) + LFE ch, ~ 640 kbps avg | ENG
Размер: 11,55 GB
Скачать: Семпл
"MI@logx.264"
logx.264 написал:
x264 [info]: frame I:1597 Avg QP:13.65 size:141471
x264 [info]: frame P:42905 Avg QP:14.83 size: 73275
x264 [info]: frame B:151714 Avg QP:15.43 size: 42259
x264 [info]: consecutive B-frames: 1.7% 2.3% 9.2% 24.8% 17.7% 36.0% 3.8% 0.9% 0.8% 2.3% 0.5%
x264 [info]: ref P L0: 46.8% 8.5% 16.5% 8.7% 6.4% 4.8% 3.8% 2.4% 1.8% 0.3% 0.0%

MediaInfo написал:
Уникальный идентификатор : 199354974948448263479741068894658781062 (0x95FA5F1FF866EBDAA9FB6A9206B65F86)
Полное имя : Pirates.of.the.Caribbean.On.Stranger.Tides.2011.BluRay.2хRus.Ukr.Eng.-HQCLUB.mkv
Формат : Matroska
Версия формата : Version 4 / Version 2
Размер файла : 11,6 Гбайт
Продолжительность : 2 ч. 16 м.
Общий поток : 12,1 Мбит/сек
Название фильма : Пираты Карибского моря: На краю Света / Pirates of the Caribbean: At World's End (2007) BDRip 720p
Дата кодирования : UTC 2010-02-22 21:41:31
Программа кодирования : mkvmerge v5.8.0 ('No Sleep / Pillow') built on Sep 30 2012 10:57:14
Библиотека кодирования : libebml v1.3.0 + libmatroska v1.4.0
Attachements : Cover. На странных берегах.png

Видео
Идентификатор : 1
Формат : AVC
Формат/Информация : Advanced Video Codec
Профиль формата : High@L4.1
Параметр CABAC формата : Да
Параметр ReFrames формата : 9 кадров
Идентификатор кодека : V_MPEG4/ISO/AVC
Продолжительность : 2 ч. 16 м.
Битрейт : 9567 Кбит/сек
Ширина : 1280 пикселей
Высота : 534 пикселя
Соотношение сторон : 2,40:1
Режим частоты кадров : Постоянный
Частота кадров : 23,976 кадра/сек
Цветовое пространство : YUV
Субдискретизация насыщенности : 4:2:0
Битовая глубина : 8 бит
Тип развёртки : Прогрессивная
Бит/(Пиксели*Кадры) : 0.584
Размер потока : 8,88 Гбайт (77%)
Заголовок : Release by Rensler
Библиотека кодирования : x264 core 148 r2638 7599210
Настройки программы : cabac=1 / ref=9 / deblock=1:-3:-3 / analyse=0x3:0x113 / me=umh / subme=10 / psy=1 / psy_rd=1.04:0.14 / mixed_ref=1 / me_range=48 / chroma_me=1 / trellis=2 / 8x8dct=1 / cqm=0 / deadzone=21,11 / fast_pskip=0 / chroma_qp_offset=-3 / threads=3 / lookahead_threads=1 / sliced_threads=0 / nr=0 / decimate=0 / interlaced=0 / bluray_compat=0 / constrained_intra=0 / bframes=10 / b_pyramid=2 / b_adapt=2 / b_bias=0 / direct=3 / weightb=1 / open_gop=0 / weightp=2 / keyint=230 / keyint_min=23 / scenecut=40 / intra_refresh=0 / rc_lookahead=60 / rc=2pass / mbtree=0 / bitrate=9567 / ratetol=1.0 / qcomp=0.85 / qpmin=0 / qpmax=69 / qpstep=4 / cplxblur=20.0 / qblur=0.5 / vbv_maxrate=40000 / vbv_bufsize=30000 / nal_hrd=none / filler=0 / ip_ratio=1.20 / pb_ratio=1.10 / aq=2:0.90
Язык : English
Default : Да
Forced : Нет

Аудио #1
Идентификатор : 2
Формат : AC-3
Формат/Информация : Audio Coding 3
Расширение режима : CM (complete main)
Параметр Endianness формата : Big
Идентификатор кодека : A_AC3
Продолжительность : 2 ч. 16 м.
Вид битрейта : Постоянный
Битрейт : 640 Кбит/сек
Каналы : 6 каналов
Расположение каналов : Front: L C R, Side: L R, LFE
Частота : 48,0 КГц
Битовая глубина : 16 бит
Метод сжатия : С потерями
Размер потока : 624 Мбайт (5%)
Заголовок : BD CEE
Язык : Russian
Default : Да
Forced : Нет

Аудио #2
Идентификатор : 3
Формат : AC-3
Формат/Информация : Audio Coding 3
Расширение режима : CM (complete main)
Параметр Endianness формата : Big
Идентификатор кодека : A_AC3
Продолжительность : 2 ч. 16 м.
Вид битрейта : Постоянный
Битрейт : 640 Кбит/сек
Каналы : 6 каналов
Расположение каналов : Front: L C R, Side: L R, LFE
Частота : 48,0 КГц
Битовая глубина : 16 бит
Метод сжатия : С потерями
Размер потока : 624 Мбайт (5%)
Заголовок : Gavrilov
Язык : Russian
Default : Нет
Forced : Нет

Аудио #3
Идентификатор : 4
Формат : AC-3
Формат/Информация : Audio Coding 3
Расширение режима : CM (complete main)
Параметр Endianness формата : Big
Идентификатор кодека : A_AC3
Продолжительность : 2 ч. 16 м.
Вид битрейта : Постоянный
Битрейт : 640 Кбит/сек
Каналы : 6 каналов
Расположение каналов : Front: L C R, Side: L R, LFE
Частота : 48,0 КГц
Битовая глубина : 16 бит
Метод сжатия : С потерями
Размер потока : 624 Мбайт (5%)
Заголовок : Ukrainian
Язык : Ukrainian
Default : Нет
Forced : Нет

Аудио #4
Идентификатор : 5
Формат : AC-3
Формат/Информация : Audio Coding 3
Расширение режима : CM (complete main)
Параметр Endianness формата : Big
Идентификатор кодека : A_AC3
Продолжительность : 2 ч. 16 м.
Вид битрейта : Постоянный
Битрейт : 640 Кбит/сек
Каналы : 6 каналов
Расположение каналов : Front: L C R, Side: L R, LFE
Частота : 48,0 КГц
Битовая глубина : 16 бит
Метод сжатия : С потерями
Размер потока : 624 Мбайт (5%)
Заголовок : Original
Язык : English
Default : Нет
Forced : Нет

Текст #1
Идентификатор : 6
Формат : UTF-8
Идентификатор кодека : S_TEXT/UTF8
Идентификатор кодека/Информация : UTF-8 Plain Text
Заголовок : Forced
Язык : Russian
Default : Да
Forced : Нет

Текст #2
Идентификатор : 7
Формат : UTF-8
Идентификатор кодека : S_TEXT/UTF8
Идентификатор кодека/Информация : UTF-8 Plain Text
Заголовок : Full
Язык : Russian
Default : Нет
Forced : Нет

Текст #3
Идентификатор : 8
Формат : UTF-8
Идентификатор кодека : S_TEXT/UTF8
Идентификатор кодека/Информация : UTF-8 Plain Text
Заголовок : Forced
Язык : Ukrainian
Default : Нет
Forced : Нет

Текст #4
Идентификатор : 9
Формат : UTF-8
Идентификатор кодека : S_TEXT/UTF8
Идентификатор кодека/Информация : UTF-8 Plain Text
Заголовок : Full
Язык : Ukrainian
Default : Нет
Forced : Нет

Текст #5
Идентификатор : 10
Формат : UTF-8
Идентификатор кодека : S_TEXT/UTF8
Идентификатор кодека/Информация : UTF-8 Plain Text
Заголовок : Full
Язык : English
Default : Нет
Forced : Нет

Меню
00:00:00.000 : :Chapter 01
00:03:34.172 : :Chapter 02
00:08:46.775 : :Chapter 03
00:15:56.080 : :Chapter 04
00:18:34.154 : :Chapter 05
00:21:15.315 : :Chapter 06
00:30:05.512 : :Chapter 07
00:36:56.756 : :Chapter 08
00:42:05.356 : :Chapter 09
00:48:20.022 : :Chapter 10
00:53:26.077 : :Chapter 11
00:55:42.964 : :Chapter 12
00:57:52.844 : :Chapter 13
01:00:47.477 : :Chapter 14
01:08:22.223 : :Chapter 15
01:11:41.338 : :Chapter 16
01:13:03.170 : :Chapter 17
01:14:16.743 : :Chapter 18
01:23:19.994 : :Chapter 19
01:26:49.621 : :Chapter 20
01:30:16.494 : :Chapter 21
01:35:43.737 : :Chapter 22
01:40:57.926 : :Chapter 23
01:43:07.555 : :Chapter 24
01:44:51.660 : :Chapter 25
01:48:53.610 : :Chapter 26
01:57:41.471 : :Chapter 27
02:02:21.375 : :Chapter 28
02:05:51.460 : :Chapter 29
02:07:26.805 : :Chapter 30
02:16:23.592 : :Chapter 31

http//img10.lostpic.net/2015/10/30/e31b4faf9cef83f317ba1edaa9beb933.th.png http//img10.lostpic.net/2015/10/30/76237cfb61e4ba1c372eb5c839bec72d.th.png http//img10.lostpic.net/2015/10/30/2234a0f30b35f4f61c892ebc5d003e.th.png http//img10.lostpic.net/2015/10/30/2cadf2b7da7dc600719abc9845105ac8.th.png
http//img10.lostpic.net/2015/10/30/72eaf8ca7b5dfa77f0cdccd112dd58.th.png http//img10.lostpic.net/2015/10/30/34ef17d9fb5d97302144a1deb2fdfed3.th.png http//img10.lostpic.net/2015/10/30/a5a6a1f26ba1f5f1168c862b69440a.th.png http//img10.lostpic.net/2015/10/30/8ac1e71a54ea922e7eb85e7a633554.th.png

Ссылки для скачивания:
http//bt.hqclub.net/files/ok.png Торрент: Пираты Карибского моря: Квадрология / Pirates of the Caribbean: Quadrilogy (2003/2006/2007/2011) BDRip 720p

Лучшая онлайн игра!


Публикация материалов сайта на сторонних ресурсах возможна только в неизменном виде.


Обсудить релиз на форуме

Вас также может заинтересовать:


  • 5
 (Голосов: 9)


Распечатать новость на принтере Фэнтези, Боевик, Комедия, Приключения, Семейный
Обновлено: 30.10.2015 - 21:54

КОММЕНТАРИИ

 №1. tolian77

Статус: Новичок | Новостей: 0 | Комментариев: 21
tolian77 Вот это японимаю, тема!
~~~

31.10.2015 - 12:51   цитировать  

 №2. ru4lan

Статус: Кинокритик | Новостей: 0 | Комментариев: 2736
ru4lan мега труд! спасибо!
~~~

31.10.2015 - 13:08   цитировать  

 №3. Rensler

Статус: Новичок | Новостей: 22 | Комментариев: 10
Rensler Пожалуйста.
~~~

26.11.2015 - 16:01   цитировать