Вас Приветствует Релиз-группа HQCLUB


Помощь ресурсу, очень ВАЖНО!!!



.


WELCOME
Добро пожаловать в наше интернет - сообщество!

Всех нас объединяет одна страсть - страсть к высококачественному кино. А это наш сайт. Ежедневно здесь мы публикуем десятки качественных, свежих, а порой и эксклюзивных релизов, которые Вы можете скачать совершенно бесплатно и без каких-либо регистраций. Посему рекомендуем Вам добавить HQClub себе в закладки, а также подписаться на нашу ленту новостей, чтобы всегда быть в курсе всех событий. Ну а если Вы такой же синий фил, как и мы, то милости просим на наш форум. И в заключение, попробуйте зарегистрироваться, ведь не так это и сложно и займет всего лишь пару минут! Вот увидите, Вам у нас понравится и Вы вольетесь в наш дружный коллектив! Ну а пока - осматривайтесь = )
Мы рады Вам !





Артур и месть Урдалака /Arthur et la vengeance de Maltazard (2009) BDRip-AVC

Оформил: kingsize87 | 29 мая 2010 - 16:43:29 | Обращений: 1852 {bookmarks_news}

http//img.hqclub.net/boxes/logo407316_box.png

Информация о фильме
Название: Артур и месть Урдалака
Оригинальное название: Arthur et la vengeance de Maltazard
Год выхода: 2009
Жанр: фэнтези, семейный, мультфильм
Режиссер: Люк Бессон / Luc Besson
В ролях: Селена Гомес, Стэйси Фергюсон, Фредди Хаймор, Джимми Фэллон, Миа Фэрроу, Снуп Догг, Уилл Ай Эм, Аса Баттерфилд, Роберт Стэнтон, Логан Миллер

О фильме:
Артур в восторге, потому что этой ночью заканчивается десятый лунный цикл, и он, наконец, сможет вернуться в страну минипутов, чтобы воссоединиться с Селенией. В деревне минипуты приготовили в его честь роскошный банкет, а маленькая принцесса облачилась в платье из лепестков роз. Но отец Артура именно в этот долгожданный день объявляет, что их каникулы у бабушки заканчиваются. Они уже собираются уезжать, как вдруг паук кладёт в ладонь Артуру рисунок, на котором написано слово S.O.S. Сомнений нет — Селении угрожает опасность! Артур, не задумываясь, летит к ней на выручку. Даже если столкнуться с войсками Креба, нового тирана Семи Королевств, спасти Бархлюша, сражаться с крысами, лягушками, и волосатыми пауками… Лишь для того, чтобы, попав в деревушку минипутов, узнать, что они вовсе не просили его о помощи! Но кто же мог приготовить такую изобретательную ловушку нашему юному герою?

User Rating: 5.063/10 (2 004 votes)
Imdb: 4.9/10 ( 564 votes)

Релиз от - http//hqclub.net/images/hqclub.png
Автор рипа: chopper887

Выпущено: Франция
Продолжительность: 01:30:00
Перевод: Профессиональный (полное дублирование) + Оригинальная звуковая дорожка
Субтитры: Румынские,датские,итальянские, сербские (srt*)

Файл:
Формат: mkv
Качество: BDRip-AVC (источник: Blu-ray Disc / 1080p)
Видео: 1024x432 (2.35:1), 23,976 fps, 2545 kbps avg
Аудио #1: 48 kHz, AC3 Dolby Digital, 3/2 (L,C,R,l,r) + LFE ch, ~384.00 kbps avg DUB
Аудио #2: 48 kHz, AC3 Dolby Digital, 3/2 (L,C,R,l,r) + LFE ch, ~384.00 kbps avg ENG

Размер: (1/2 DVD-R)
Скачать: Семпл

"MediaInfo"

General
Complete name : F:\Artur.i.mest.Urdalaka.DUAL.H264.AC3.BDRip-AVC- HQCLUB.mkv
Format : Matroska
File size : 2.17 GiB
Duration : 1h 33mn
Overall bit rate : 3 311 Kbps
Movie name : chopper887
Encoded date : UTC 2010-05-29 03:23:01
Writing application : mkvmerge v3.0.0 ('Hang up your Hang-Ups') built on Dec 12 2009 15:20:35
Writing library : libebml v0.7.9 + libmatroska v0.8.1

Video
ID : 1
Format : AVC
Format/Info : Advanced Video Codec
Format profile : High@L4.1
Format settings, CABAC : Yes
Format settings, ReFrames : 9 frames
Muxing mode : Container profile=Unknown@4.1
Codec ID : V_MPEG4/ISO/AVC
Duration : 1h 33mn
Bit rate : 2 545 Kbps
Width : 1 024 pixels
Height : 432 pixels
Display aspect ratio : 2.35:1
Frame rate : 23.976 fps
Color space : YUV
Chroma subsampling : 4:2:0
Bit depth : 8 bits
Scan type : Progressive
Bits/(Pixel*Frame) : 0.240
Stream size : 1.62 GiB (75%)
Title : Arthur et la vengeance de Maltazard
Writing library : x264 core 95 r1592 95aacc4
Encoding settings : cabac=1 / ref=9 / deblock=1:-2:-1 / analyse=0x3:0x113 / me=umh / subme=9 / psy=1 / psy_rd=1.00:0.10 / mixed_ref=1 / me_range=32 / chroma_me=1 / trellis=2 / 8x8dct=1 / cqm=0 / deadzone=21,11 / fast_pskip=0 / chroma_qp_offset=-3 / threads=3 / sliced_threads=0 / nr=0 / decimate=1 / interlaced=0 / constrained_intra=0 / bframes=10 / b_pyramid=2 / b_adapt=2 / b_bias=0 / direct=1 / weightb=1 / weightp=2 / keyint=250 / keyint_min=25 / scenecut=40 / intra_refresh=0 / rc_lookahead=60 / rc=2pass / mbtree=1 / bitrate=2545 / ratetol=1.0 / qcomp=0.60 / qpmin=10 / qpmax=51 / qpstep=4 / cplxblur=20.0 / qblur=0.5 / ip_ratio=1.40 / aq=1:1.00
Language : English

Audio #1
ID : 2
Format : AC-3
Format/Info : Audio Coding 3
Mode extension : CM (complete main)
Codec ID : A_AC3
Duration : 1h 33mn
Bit rate mode : Constant
Bit rate : 384 Kbps
Channel(s) : 6 channels
Channel positions : Front: L C R, Side: L R, LFE
Sampling rate : 48.0 KHz
Stream size : 258 MiB (12%)
Title : Русский

Audio #2
ID : 3
Format : AC-3
Format/Info : Audio Coding 3
Mode extension : CM (complete main)
Codec ID : A_AC3
Duration : 1h 33mn
Bit rate mode : Constant
Bit rate : 384 Kbps
Channel(s) : 6 channels
Channel positions : Front: L C R, Side: L R, LFE
Sampling rate : 48.0 KHz
Stream size : 258 MiB (12%)
Title : Английский

Text #1
ID : 4
Format : UTF-8
Codec ID : S_TEXT/UTF8
Codec ID/Info : UTF-8 Plain Text
Title : Romanian

Text #2
ID : 5
Format : UTF-8
Codec ID : S_TEXT/UTF8
Codec ID/Info : UTF-8 Plain Text
Title : Dutch

Text #3
ID : 6
Format : UTF-8
Codec ID : S_TEXT/UTF8
Codec ID/Info : UTF-8 Plain Text
Title : Italian

Text #4
ID : 7
Format : UTF-8
Codec ID : S_TEXT/UTF8
Codec ID/Info : UTF-8 Plain Text
Title : Serbian



http//i5.fastpic.ru/thumb/2010/0529/d8/ae767845eb94770e9817c4c04ac59ed8.jpeg http//i5.fastpic.ru/thumb/2010/0529/43/b2462b6ed960911226ef709bcb6e1543.jpeg http//i5.fastpic.ru/thumb/2010/0529/68/4442f4d9a1252d4c0a23985542f22268.jpeg http//i5.fastpic.ru/thumb/2010/0529/2a/1aa6c353e8ab2ce11a72a429d0e82a.jpeg http//i5.fastpic.ru/thumb/2010/0529/8e/430580af4c5e229adb69020659ae8e.jpeg http//i5.fastpic.ru/thumb/2010/0529/52/e4ceadb9971766cd732f3cb96f63c052.jpeg http//i5.fastpic.ru/thumb/2010/0529/ca/64d372b00ade45d76668b0808198ca.jpeg http//i5.fastpic.ru/thumb/2010/0529/e9/10ab06abd3f79c3a360dd74af66315e9.jpeg http//i5.fastpic.ru/thumb/2010/0529/a5/50ae98959ffdaa7a7289cb4a5bc00ca5.jpeg http//i5.fastpic.ru/thumb/2010/0529/a1/78dc764f2c68996c006f5938a8c478a1.jpeg http//i5.fastpic.ru/thumb/2010/0529/fb/740f76a7af4afff4285ef0c8aef81ffb.jpeg http//i5.fastpic.ru/thumb/2010/0529/89/fd0911a2f410cccff5fd676523bab889.jpeg http//i5.fastpic.ru/thumb/2010/0529/c8/ec05d2a768c51c42214c5881f4e9e8c8.jpeg http//i5.fastpic.ru/thumb/2010/0529/ff/81de0b4c54fa5ea1739ebe0e819379ff.jpeg
Ссылки для скачивания:

http//s52.radikal.ru/i136/0912/4f/9271076c3e7b.png Торрент: Артур и месть Урдалака /Arthur et la vengeance de Maltazard (2009) BDRip-AVC

Лучшая онлайн игра!


Публикация материалов сайта на сторонних ресурсах возможна только в неизменном виде.


Обсудить релиз на форуме

Вас также может заинтересовать:


  • 4
 (Голосов: 5)


Распечатать новость на принтере Фэнтези, Мультфильм, Семейный