Вас Приветствует Релиз-группа HQCLUB


Помощь ресурсу, очень ВАЖНО!!!



.


WELCOME
Добро пожаловать в наше интернет - сообщество!

Всех нас объединяет одна страсть - страсть к высококачественному кино. А это наш сайт. Ежедневно здесь мы публикуем десятки качественных, свежих, а порой и эксклюзивных релизов, которые Вы можете скачать совершенно бесплатно и без каких-либо регистраций. Посему рекомендуем Вам добавить HQClub себе в закладки, а также подписаться на нашу ленту новостей, чтобы всегда быть в курсе всех событий. Ну а если Вы такой же синий фил, как и мы, то милости просим на наш форум. И в заключение, попробуйте зарегистрироваться, ведь не так это и сложно и займет всего лишь пару минут! Вот увидите, Вам у нас понравится и Вы вольетесь в наш дружный коллектив! Ну а пока - осматривайтесь = )
Мы рады Вам !





Каспер / Casper (1995) BDRip-AVC

Оформил: Elheym | 10 сентября 2014 - 13:27:00 | Комментариев: 1 | Обращений: 806 {bookmarks_news}

http//lostpic.net/orig_images/e/6/0/e609547b407ff7e79542c3f7e8a668.jpg

Информация о фильме:
Название: Каспер
Оригинальное название: Casper
Год выхода: 1995
Жанр: фэнтези, комедия, семейный
Режиссер: Брэд Силберлинг
В ролях: Билл Пуллман, Кристина Риччи, Чонси Леопарди, Спенсер Врумэн, Малачи Пирсон, Кэти Мориарти, Эрик Айдл, Бен Стайн, Дон Новелло, Фред Роджерс

О фильме: Главный герой фильма — созданное мастерством мультипликаторов маленькое дружелюбное приведение по имени Каспер, не желающее походить на своих хулиганствующих собратьев.

Его дружба с девочкой-подростком Кэт помогает ей и ее отцу, доктору Харви, справиться с опасностями, поджидающими их в населенном призраками доме. Законы дружбы и доброе сердце заставляют Каспера ради счастья своих друзей пожертвовать возможностью вновь стать человеком.

«Дружба превыше всего»



http//rating.kinopoisk.ru/7098.gif http//tracker.0day.kiev.ua/imdb/imdb_tt0112642.gif

Релиз от - http//hqclub.net/images/hqclub.png
Автор рипа: Elheym

Выпущено: США, Amblin Entertainment, The Harvey Entertainment Company, Universal Pictures
Продолжительность: 01:40:08
Перевод 1: Профессиональный (многоголосый, закадровый), R5
Перевод 2: Профессиональный (двухголосый, закадровый), П. Гланц и Т. Казакова
Оригинальная аудио дорожка: английский
Субтитры: русские (полные), английские (полные, полные SDH)
Главы: присутствуют, сохранены оригинальные

Дополнительные аудиодорожки:
+ Профессиональный (многоголосый, закадровый)
+ Профессиональный (двухголосый, закадровый) НТВ+
+ Авторский (одноголосый, закадровый) Ю. Живов
+ Авторский (одноголосый, закадровый) С. Визгунов
+ Авторский (одноголосый, закадровый) П. Санаев

Цитата:
Дорожки №2 и №6 получены путем наложения чистых голосов на центральный канал декодированных DTS-HD MA. Работа со звуком by Anoobis за что ему большое спасибо.
Звуковая дорожка с авторским переводом от Сергея Визгунова синхронизированна мной [Elheym] без пересжатия.


Файл:
Формат: MKV
Качество: BDRip-AVC (источник: http//i6.imageban.ru/out/2013/12/03/4e28a776aefd696cd2f60144f6545e1b.gif / BDRemux / 1080p)
Видео: 1096x592 (1.85:1), 23.976 fps, MPEG-4 AVC, ~4319 kbps avg, 0.278 bit/pixel
Аудио #1: 48 kHz, AC3 Dolby Digital, 2/0 (L,R,) ch, ~192 kbps (MVO.R5)
Аудио #2: 48 kHz, AC3 Dolby Digital, 3/2 (L,C,R,l,r) + LFE ch, ~448 kbps (DVO.GLANC)
Аудио #3: 48 kHz, AC3 Dolby Digital, 3/2 (L,C,R,l,r) + LFE ch, ~448 kbps (ENG)
Аудио #4: 48 kHz, AC3 Dolby Digital, 2/0 (L,R) ch, ~192 kbps avg (MVO) (отдельно)
Аудио #5: 48 kHz, AC3 Dolby Digital, 2/0 (L,R) ch, ~192 kbps avg (DVO.NTV+) (отдельно)
Аудио #6: 48 kHz, AC3 Dolby Digital, 3/2 (L,C,R,l,r) + LFE ch, ~448 kbps avg (AVO.JIVOV) (отдельно)
Аудио #7: 48 kHz, AC3 Dolby Digital, 2/0 (L,R) ch, ~192 kbps avg (AVO.VIZGUNOV) (отдельно)
Аудио #8: 48 kHz, AC3 Dolby Digital, 2/0 (L,R) ch, ~192 kbps avg (AVO.SANAEV) (отдельно)
Размер: 3.85 GB
Сэмпл: скачать

http//lostpic.net/thumbs_images/1/d/6/1d66b47f4be02bdc2931939652438c29.png http//lostpic.net/thumbs_images/a/8/0/a805d8523335e02095229b8eed17a314.png http//lostpic.net/thumbs_images/c/1/a/c1aa9fcc30210529a4c4052e246d8725.png http//lostpic.net/thumbs_images/8/c/f/8cf1ccefc11c63608259878bce845aad.png http//lostpic.net/thumbs_images/7/9/f/79f36e32f5f595618bb133c01556ff47.png http//lostpic.net/thumbs_images/9/3/b/93bf1e11316c7def990dcdde2342289b.png

"MediaInfo"

Уникальный идентификатор : 212146267433430144293482064835734571442 (0x9F99E28911972C4B843264C3621E89B2)
Полное имя : Casper.1995.TRIPLE.BDRip-AVC.x264.AC3.-HQCLUB.mkv
Формат : Matroska
Версия формата : Version 2
Размер файла : 3,86 Гбайт
Продолжительность : 1 ч. 40 м.
Общий поток : 5517 Кбит/сек
Дата кодирования : UTC 2014-09-10 08:12:26
Программа кодирования : mkvmerge v5.2.0 ('I can't explain') built on Dec 18 2011 18:12:03
Библиотека кодирования : libebml v1.2.3 + libmatroska v1.3.0
Attachment : Yes / Yes

Видео
Идентификатор : 1
Формат : AVC
Формат/Информация : Advanced Video Codec
Профиль формата : High@L4.1
Параметр CABAC формата : Да
Параметр ReFrames формата : 12 кадров
Идентификатор кодека : V_MPEG4/ISO/AVC
Продолжительность : 1 ч. 40 м.
Битрейт : 4319 Кбит/сек
Ширина : 1096 пикселей
Высота : 592 пикселя
Соотношение сторон : 1,85:1
Режим частоты кадров : Постоянный
Частота кадров : 23,976 кадра/сек
Цветовое пространство : YUV
Субдискретизация насыщенности : 4:2:0
Битовая глубина : 8 бит
Тип развёртки : Прогрессивная
Бит/(Пиксели*Кадры) : 0.278
Размер потока : 3,02 Гбайт (78%)
Заголовок : Каспер / Casper (1995) BDRip-AVC by HQCLUB [Elheym]
Библиотека кодирования : x264 core 142 r2453 ea0ca51
Настройки программы : cabac=1 / ref=12 / deblock=1:-3:-2 / analyse=0x3:0x113 / me=umh / subme=11 / psy=1 / psy_rd=1.20:0.00 / mixed_ref=1 / me_range=32 / chroma_me=1 / trellis=2 / 8x8dct=1 / cqm=0 / deadzone=21,11 / fast_pskip=0 / chroma_qp_offset=-4 / threads=6 / lookahead_threads=1 / sliced_threads=0 / nr=0 / decimate=1 / interlaced=0 / bluray_compat=0 / constrained_intra=0 / bframes=12 / b_pyramid=2 / b_adapt=2 / b_bias=0 / direct=1 / weightb=1 / open_gop=0 / weightp=2 / keyint=230 / keyint_min=23 / scenecut=40 / intra_refresh=0 / rc_lookahead=50 / rc=crf / mbtree=1 / crf=15.9 / qcomp=0.60 / qpmin=0 / qpmax=69 / qpstep=4 / vbv_maxrate=50000 / vbv_bufsize=62500 / crf_max=0.0 / nal_hrd=none / filler=0 / ip_ratio=1.40 / aq=1:0.90
Язык : English
Default : Да
Forced : Нет

Аудио #1
Идентификатор : 2
Формат : AC-3
Формат/Информация : Audio Coding 3
Расширение режима : CM (complete main)
Параметр Endianness формата : Big
Идентификатор кодека : A_AC3
Продолжительность : 1 ч. 40 м.
Вид битрейта : Постоянный
Битрейт : 192 Кбит/сек
Каналы : 2 канала
Расположение каналов : Front: L R
Частота : 48,0 КГц
Битовая глубина : 16 бит
Метод сжатия : С потерями
Размер потока : 138 Мбайт (3%)
Заголовок : АС3 2.0 @ 192 kbps - MVO, R5
Язык : Russian
Default : Нет
Forced : Нет

Аудио #2
Идентификатор : 3
Формат : AC-3
Формат/Информация : Audio Coding 3
Расширение режима : CM (complete main)
Параметр Endianness формата : Big
Идентификатор кодека : A_AC3
Продолжительность : 1 ч. 40 м.
Вид битрейта : Постоянный
Битрейт : 448 Кбит/сек
Каналы : 6 каналов
Расположение каналов : Front: L C R, Side: L R, LFE
Частота : 48,0 КГц
Битовая глубина : 16 бит
Метод сжатия : С потерями
Размер потока : 321 Мбайт (8%)
Заголовок : АС3 5.1 @ 448 kbps - DVO, Glanc & Kazakova
Язык : Russian
Default : Нет
Forced : Нет

Аудио #3
Идентификатор : 4
Формат : AC-3
Формат/Информация : Audio Coding 3
Расширение режима : CM (complete main)
Параметр Endianness формата : Big
Идентификатор кодека : A_AC3
Продолжительность : 1 ч. 40 м.
Вид битрейта : Постоянный
Битрейт : 448 Кбит/сек
Каналы : 6 каналов
Расположение каналов : Front: L C R, Side: L R, LFE
Частота : 48,0 КГц
Битовая глубина : 16 бит
Метод сжатия : С потерями
Размер потока : 321 Мбайт (8%)
Заголовок : АС3 5.1 @ 448 kbps - Original
Язык : English
Default : Нет
Forced : Нет

Текст #1
Идентификатор : 5
Формат : UTF-8
Идентификатор кодека : S_TEXT/UTF8
Идентификатор кодека/Информация : UTF-8 Plain Text
Заголовок : Full
Язык : Russian
Default : Нет
Forced : Нет

Текст #2
Идентификатор : 6
Формат : UTF-8
Идентификатор кодека : S_TEXT/UTF8
Идентификатор кодека/Информация : UTF-8 Plain Text
Заголовок : Full
Язык : English
Default : Нет
Forced : Нет

Текст #3
Идентификатор : 7
Формат : UTF-8
Идентификатор кодека : S_TEXT/UTF8
Идентификатор кодека/Информация : UTF-8 Plain Text
Заголовок : Full SDH
Язык : English
Default : Нет
Forced : Нет

Меню
00:00:00.000 : :00:00:00.000
00:02:44.455 : :00:02:44.455
00:05:16.899 : :00:05:16.899
00:10:37.136 : :00:10:37.136
00:14:00.104 : :00:14:00.104
00:19:23.871 : :00:19:23.871
00:22:27.054 : :00:22:27.054
00:27:11.171 : :00:27:11.171
00:29:44.783 : :00:29:44.783
00:33:55.584 : :00:33:55.584
00:37:31.332 : :00:37:31.332
00:40:56.745 : :00:40:56.745
00:44:26.622 : :00:44:26.622
00:50:20.142 : :00:50:20.142
00:53:40.752 : :00:53:40.752
00:58:32.008 : :00:58:32.008
01:02:35.543 : :01:02:35.543
01:05:24.921 : :01:05:24.921
01:12:26.008 : :01:12:26.008
01:15:19.723 : :01:15:19.723
01:20:29.199 : :01:20:29.199
01:25:21.908 : :01:25:21.908
01:27:12.518 : :01:27:12.518
01:32:17.823 : :01:32:17.823
01:33:52.627 : :01:33:52.627
01:40:00.050 : :01:40:00.050

"x264 log"

x264 [info]: frame I:931 Avg QP:12.97 size:117159
x264 [info]: frame P:29530 Avg QP:16.48 size: 44028
x264 [info]: frame B:113598 Avg QP:19.51 size: 16857

x264 [info]: consecutive B-frames: 1.2% 1.5% 4.7% 25.0% 14.7% 43.3% 4.5% 2.3% 0.9% 0.8% 0.3% 0.4% 0.4%

x264 [info]: ref P L0: 39.8% 9.5% 18.5% 7.5% 6.4% 4.4% 4.1% 2.2% 2.2% 1.7% 1.8% 1.6% 0.2% 0.0%
x264 [info]: ref B L0: 72.3% 11.7% 5.5% 3.0% 2.0% 1.7% 1.3% 0.9% 0.7% 0.5% 0.2%
x264 [info]: ref B L1: 93.6% 6.4%


Ссылки для скачивания:

http//bt.hqclub.net/files/ok.png Торрент: Каспер / Casper (1995) BDRip-AVC

Лучшая онлайн игра!


Публикация материалов сайта на сторонних ресурсах возможна только в неизменном виде.


Обсудить релиз на форуме

Вас также может заинтересовать:


  • 5
 (Голосов: 3)


Распечатать новость на принтере Фэнтези, Комедия, Семейный

КОММЕНТАРИИ

 №1. ru4lan

Статус: Кинокритик | Новостей: 0 | Комментариев: 2736
ru4lan Мой формат и размер!
~~~

12.09.2014 - 21:01   цитировать